VERSION	0.00.00	1.03.00
FES_MODE	0
BPM_DEF	220.000	220.000	220.000	220.000
MET_DEF	4	4
RESOLUTION	384
CLK_DEF	384
COMPATIBLE_CODE	MA2

BPM	0	0	220.000

TAP	1	288	3
TAP	1	288	4
TAP	2	0	2
HLD	2	0	5	768
TAP	2	192	4
TAP	3	0	4
TAP	3	192	4
TAP	3	288	3
HLD	4	0	2	768
TAP	4	192	3
TAP	5	0	3
TAP	5	192	3
TAP	5	288	4
HLD	6	0	5	768
TAP	6	192	4
TAP	7	0	4
TAP	7	192	4
TAP	7	288	3
TAP	8	0	2
TAP	8	96	4
TAP	8	192	1
TAP	8	288	7
TAP	9	0	3
TAP	9	96	5
TAP	9	192	0
TAP	9	288	3
TAP	9	288	4
TAP	10	0	4
TAP	10	0	6
TAP	10	160	1
TAP	10	160	3
TAP	10	288	1
TAP	10	288	6
TAP	11	64	7
TAP	11	96	0
TAP	11	192	0
TAP	11	288	0
TAP	12	0	1
TAP	12	0	3
TAP	12	160	4
TAP	12	160	6
TAP	12	288	1
TAP	12	288	6
TAP	13	64	0
TAP	13	96	7
TAP	13	192	2
TAP	13	192	5
TAP	14	0	4
TAP	14	0	6
TAP	14	160	1
TAP	14	160	3
TAP	14	288	1
TAP	14	288	6
TAP	15	96	0
TAP	15	96	7
TAP	15	192	0
TAP	15	192	7
TAP	16	0	3
TAP	16	0	5
TAP	16	96	3
TAP	16	96	5
TAP	16	192	2
TAP	16	192	4
TAP	16	288	2
TAP	16	288	4
TAP	17	0	0
TAP	17	0	7
TAP	17	96	1
TAP	17	96	6
TAP	17	192	2
TAP	17	192	5
STR	18	0	7
SI_	18	0	7	96	96	4
STR	18	192	0
SI_	18	192	0	96	96	3
STR	19	0	4
SI_	19	0	4	96	96	7
STR	19	192	3
SI_	19	192	3	96	96	0
STR	20	0	7
SI_	20	0	7	96	96	4
STR	20	192	0
SI_	20	192	0	96	96	3
TAP	21	0	4
TAP	21	96	2
TAP	21	96	5
TAP	21	192	3
TAP	21	192	4
TAP	21	288	1
TAP	21	288	6
TAP	22	0	3
HLD	22	0	5	96
TAP	22	96	1
HLD	22	192	2	96
TAP	22	192	4
TAP	22	288	6
TAP	23	0	3
HLD	23	0	5	96
TAP	23	96	1
HLD	23	192	2	96
TAP	23	192	4
TAP	23	288	6
TAP	24	0	3
HLD	24	0	5	96
TAP	24	96	1
HLD	24	192	2	96
TAP	24	192	4
TAP	24	288	6
TAP	25	0	4
TAP	25	0	5
TAP	25	96	3
TAP	25	96	6
TAP	25	192	0
TAP	25	192	5
HLD	26	0	2	96
TAP	26	0	3
TAP	26	96	6
TAP	26	192	4
HLD	26	192	5	96
TAP	26	288	1
HLD	27	0	2	96
TAP	27	0	3
TAP	27	96	6
TAP	27	192	4
HLD	27	192	5	96
TAP	27	288	1
HLD	28	0	2	96
TAP	28	0	3
TAP	28	96	6
TAP	28	192	4
HLD	28	192	5	96
TAP	28	288	1
TAP	29	0	2
TAP	29	0	3
TAP	29	96	1
TAP	29	96	4
TAP	29	192	2
TAP	29	192	7
HLD	30	0	2	96
HLD	30	96	3	96
HLD	30	192	2	96
HLD	30	288	5	96
HLD	31	0	4	96
HLD	31	96	5	96
HLD	31	192	1	96
TAP	31	288	6
TAP	32	0	3
TAP	32	0	5
TAP	32	96	2
TAP	32	192	1
TAP	32	288	0
TAP	33	0	1
TAP	33	0	7
TAP	33	96	6
TAP	33	192	5
TAP	33	288	4
STR	34	0	1
SCL	34	0	1	96	192	6
TAP	34	0	3
HLD	35	0	2	96
HLD	35	0	4	96
HLD	35	192	3	96
HLD	35	192	5	96
TAP	36	0	2
TAP	36	0	4
TAP	36	96	5
TAP	36	192	6
TAP	36	288	7
TAP	37	0	0
TAP	37	0	6
TAP	37	96	1
TAP	37	192	2
TAP	37	288	3
TAP	38	0	4
STR	38	0	6
SCR	38	0	6	96	192	1
STR	39	0	3
SCL	39	0	3	96	192	0
STR	39	0	4
SCR	39	0	4	96	192	7
TAP	40	0	3
TAP	40	0	4
TAP	40	96	5
TAP	40	192	6
TAP	40	288	7
TAP	41	0	0
TAP	41	0	1
TAP	41	96	2
TAP	41	192	3
TAP	41	288	4
TAP	42	0	3
TAP	42	0	4
TAP	42	96	2
TAP	42	192	1
TAP	42	288	0
TAP	42	288	7
TAP	43	0	2
TAP	43	0	5
TAP	43	192	1
TAP	43	192	6
TAP	44	0	3
TAP	44	0	5
TAP	44	96	2
TAP	44	192	1
TAP	44	192	3
TAP	44	288	1
TAP	45	0	2
TAP	45	0	4
TAP	45	96	5
TAP	45	192	4
TAP	45	192	6
TAP	45	288	6
TAP	46	0	3
TAP	46	0	5
TAP	46	96	2
TAP	46	192	1
TAP	46	192	3
TAP	46	352	3
TAP	46	352	4
TAP	47	64	3
TAP	47	64	4
HLD	47	160	3	128
HLD	47	160	4	128
STR	48	0	1
SCR	48	0	1	96	192	4
STR	48	0	5
SCR	48	0	5	96	192	0
TAP	49	0	6
TAP	49	96	5
TAP	49	192	4
TAP	49	288	3
STR	50	0	2
SCL	50	0	2	96	192	7
STR	50	0	6
SCL	50	0	6	96	192	3
TAP	51	0	1
TAP	51	96	2
TAP	51	192	3
TAP	51	288	4
TAP	52	0	5
TAP	52	96	4
TAP	52	96	6
TAP	52	192	2
TAP	52	288	1
TAP	52	288	3
TAP	53	0	3
TAP	53	0	4
TAP	53	96	3
TAP	53	96	4
TAP	53	192	2
TAP	53	192	5
TAP	53	288	1
TAP	53	288	6
STR	54	0	0
SCR	54	0	0	96	192	3
STR	54	0	7
SCL	54	0	7	96	192	4
STR	55	0	3
SI_	55	0	3	96	96	0
STR	55	0	4
SI_	55	0	4	96	96	7
HLD	56	0	6	160
HLD	56	160	4	128
HLD	56	288	3	160
HLD	57	64	1	128
TAP	57	192	0
TAP	57	288	0
HLD	58	0	1	160
HLD	58	160	3	128
HLD	58	288	4	160
HLD	59	64	6	128
TAP	59	192	7
TAP	59	288	7
TAP	60	0	1
TAP	60	0	6
TAP	60	192	4
TAP	60	192	5
TAP	61	0	1
TAP	61	0	6
TAP	61	192	2
TAP	61	192	3
TAP	62	0	4
TAP	62	0	5
STR	62	192	0
SCL	62	192	0	96	192	5
STR	62	192	1
SCR	62	192	1	96	192	4
TAP	63	192	3
TAP	63	192	4
TAP	63	288	2
TAP	63	288	5
TAP	64	0	4
TAP	64	0	5
TAP	64	96	6
TAP	64	192	2
TAP	64	192	3
TAP	64	288	1
TAP	65	0	0
TAP	65	0	7
TAP	65	96	6
TAP	65	192	4
TAP	65	192	5
TAP	65	288	3
TAP	65	288	6
TAP	66	0	2
TAP	66	0	3
TAP	66	96	1
TAP	66	192	4
TAP	66	192	5
TAP	66	288	6
TAP	67	0	0
TAP	67	0	7
TAP	67	96	1
TAP	67	96	6
TAP	67	192	2
TAP	67	192	5
TAP	67	288	3
TAP	67	288	4
TAP	68	0	2
TAP	68	0	3
TAP	68	96	1
TAP	68	192	4
TAP	68	192	5
TAP	68	288	6
TAP	69	0	0
TAP	69	0	7
TAP	69	96	1
TAP	69	192	2
TAP	69	192	3
TAP	69	288	1
TAP	69	288	4
TAP	70	0	4
TAP	70	0	5
TAP	70	96	6
TAP	70	192	2
TAP	70	192	3
TAP	70	288	1
TAP	71	0	0
TAP	71	0	7
TAP	71	96	1
TAP	71	96	6
TAP	71	192	2
TAP	71	192	5
STR	72	0	7
SI_	72	0	7	96	96	3
STR	72	192	0
SI_	72	192	0	96	96	4
STR	73	0	7
SI_	73	0	7	96	96	3
TAP	73	192	0
TAP	73	288	0
STR	74	0	1
SI_	74	0	1	96	96	5
STR	74	192	6
SI_	74	192	6	96	96	2
STR	75	0	1
SI_	75	0	1	96	96	5
TAP	75	192	7
TAP	75	288	6
HLD	76	0	5	96
TAP	76	96	4
HLD	76	192	2	96
TAP	76	288	3
HLD	77	0	6	96
TAP	77	96	4
HLD	77	192	1	96
TAP	77	288	3
HLD	78	0	0	288
STR	78	288	7
SCL	78	288	7	96	288	0
TAP	80	0	2
TAP	80	0	3
TAP	80	96	1
TAP	80	192	4
TAP	80	192	5
TAP	80	288	6
TAP	81	0	0
TAP	81	0	7
TAP	81	96	1
TAP	81	192	2
TAP	81	192	3
TAP	81	288	1
TAP	81	288	4
TAP	82	0	4
TAP	82	0	5
TAP	82	96	6
TAP	82	192	2
TAP	82	192	3
TAP	82	288	1
TAP	83	0	0
TAP	83	0	7
TAP	83	96	1
TAP	83	96	6
TAP	83	192	2
TAP	83	192	5
TAP	83	288	3
TAP	83	288	4
TAP	84	0	4
TAP	84	0	5
TAP	84	96	6
TAP	84	192	2
TAP	84	192	3
TAP	84	288	1
TAP	85	0	0
TAP	85	0	7
TAP	85	96	6
TAP	85	192	4
TAP	85	192	5
TAP	85	288	3
TAP	85	288	6
TAP	86	0	2
TAP	86	0	3
TAP	86	96	1
TAP	86	192	4
TAP	86	192	5
TAP	86	288	6
TAP	87	0	0
TAP	87	0	7
TAP	87	96	1
TAP	87	96	6
TAP	87	192	2
TAP	87	192	5
HLD	88	0	1	96
HLD	88	0	4	96
HLD	88	192	1	96
HLD	88	192	4	96
TAP	89	0	1
TAP	89	0	4
TAP	89	96	2
TAP	89	96	5
TAP	89	192	3
TAP	89	192	6
HLD	90	0	3	96
HLD	90	0	6	96
HLD	90	192	3	96
HLD	90	192	6	96
STR	91	0	7
SCL	91	0	7	96	192	2
HLD	92	0	0	192
TAP	92	192	6
TAP	92	288	7
HLD	93	0	7	192
TAP	93	192	0
TAP	93	288	1
TAP	93	288	6
TAP	94	0	2
STR	94	0	5
SXL	94	0	5	96	480	1
TAP	96	0	1
TAP	96	0	3
TAP	96	160	4
TAP	96	160	6
TAP	96	288	1
TAP	96	288	6
TAP	97	64	0
TAP	97	96	7
TAP	97	192	7
TAP	97	288	7
TAP	98	0	4
TAP	98	0	6
TAP	98	160	1
TAP	98	160	3
TAP	98	288	1
TAP	98	288	6
TAP	99	64	7
TAP	99	96	0
TAP	99	192	2
TAP	99	192	5
TAP	100	0	1
TAP	100	0	3
TAP	100	160	4
TAP	100	160	6
TAP	100	288	1
TAP	100	288	6
TAP	101	96	0
TAP	101	96	7
TAP	101	192	0
TAP	101	192	7
TAP	102	0	2
TAP	102	0	4
TAP	102	96	2
TAP	102	96	4
TAP	102	192	3
TAP	102	192	5
TAP	102	288	3
TAP	102	288	5
TAP	103	0	0
TAP	103	0	7
TAP	103	96	1
TAP	103	96	6
TAP	103	192	2
TAP	103	192	5
TAP	104	0	5
TAP	104	96	4
TAP	104	96	6
TAP	104	192	2
TAP	104	288	1
TAP	104	288	3
TAP	105	0	5
TAP	105	96	4
TAP	105	96	6
TAP	105	192	3
TAP	105	192	4
TAP	105	288	1
TAP	105	288	6
TAP	106	0	2
TAP	106	96	1
TAP	106	96	3
TAP	106	192	5
TAP	106	288	4
TAP	106	288	6
TAP	107	0	2
TAP	107	0	3
TAP	107	96	1
TAP	107	96	4
TAP	107	192	2
TAP	107	192	7
STR	108	0	3
SCL	108	0	3	96	192	0
STR	109	0	4
SCR	109	0	4	96	192	7
TAP	110	0	0
TAP	110	96	0
TAP	110	192	0
TAP	110	192	7
TAP	111	0	3
TAP	111	0	4
TAP	111	96	0
TAP	111	96	7
BRK	111	192	1
BRK	111	192	6

T_REC_TAP	416
T_REC_BRK	2
T_REC_XTP	0
T_REC_HLD	51
T_REC_XHO	0
T_REC_STR	31
T_REC_BST	0
T_REC_XST	0
T_REC_TTP	0
T_REC_THO	0
T_REC_SLD	31
T_REC_ALL	531
T_NUM_TAP	447
T_NUM_BRK	2
T_NUM_HLD	51
T_NUM_SLD	31
T_NUM_ALL	531
T_JUDGE_TAP	449
T_JUDGE_HLD	166
T_JUDGE_SLD	31
T_JUDGE_ALL	646
TTM_EACHPAIRS	169
TTM_SCR_TAP	223500
TTM_SCR_BRK	5200
TTM_SCR_HLD	51000
TTM_SCR_SLD	46500
TTM_SCR_ALL	326200
TTM_SCR_S	316250
TTM_SCR_SS	326000
TTM_RAT_ACV	10006

