VERSION	0.00.00	1.03.00
FES_MODE	0
BPM_DEF	220.000	220.000	220.000	220.000
MET_DEF	4	4
RESOLUTION	384
CLK_DEF	384
COMPATIBLE_CODE	MA2

BPM	0	0	220.000

STR	2	0	0
SCR	2	0	0	96	480	3
STR	4	0	4
SCR	4	0	4	96	480	7
STR	6	0	0
SI_	6	0	0	96	480	3
STR	6	0	7
SI_	6	0	7	96	480	4
HLD	8	0	3	192
HLD	8	0	4	192
TAP	9	0	3
TAP	9	0	4
BRK	9	192	2
BRK	9	192	5
HLD	10	0	2	192
TAP	10	192	3
TAP	11	0	5
TAP	11	96	5
TAP	11	192	4
TAP	11	192	5
HLD	12	0	1	192
TAP	12	192	3
TAP	13	0	5
TAP	13	96	5
TAP	13	192	4
TAP	13	192	5
HLD	14	0	1	192
TAP	14	192	0
TAP	15	0	5
TAP	15	96	5
TAP	15	192	4
TAP	15	192	6
HLD	16	0	3	192
HLD	16	0	4	192
TAP	17	0	3
TAP	17	96	3
BRK	17	192	2
BRK	17	192	5
HLD	18	0	2	384
HLD	19	0	3	384
TAP	20	0	4
TAP	20	192	3
TAP	20	192	4
TAP	21	0	2
TAP	21	0	5
TAP	21	192	1
TAP	21	192	6
TAP	22	0	5
TAP	22	96	5
TAP	22	192	5
TAP	23	0	3
TAP	23	96	3
TAP	23	192	3
TAP	24	0	4
TAP	24	96	4
TAP	24	192	4
TAP	25	0	2
TAP	25	96	2
TAP	25	192	1
TAP	25	192	3
TAP	26	0	2
TAP	26	96	2
TAP	26	192	3
TAP	27	0	4
TAP	27	96	4
TAP	27	192	3
TAP	28	0	2
TAP	28	96	2
TAP	28	192	3
TAP	29	0	1
TAP	29	96	1
STR	29	192	0
SUR	29	192	0	96	480	6
TAP	31	192	0
TAP	31	192	7
HLD	32	0	2	192
TAP	32	192	3
TAP	33	0	4
TAP	33	96	4
TAP	33	192	3
HLD	34	0	5	192
TAP	34	192	4
HLD	35	0	2	192
HLD	35	0	3	192
HLD	36	0	5	192
TAP	36	192	4
TAP	37	0	3
TAP	37	96	3
TAP	37	192	3
TAP	37	192	4
HLD	38	0	2	192
HLD	38	0	5	192
TAP	39	0	4
TAP	39	96	3
TAP	39	192	2
TAP	39	192	5
HLD	40	0	6	192
TAP	40	192	7
HLD	41	0	1	192
TAP	41	192	0
HLD	42	0	5	192
TAP	42	192	4
TAP	43	0	3
TAP	43	96	3
TAP	43	192	3
TAP	43	192	4
HLD	44	0	1	192
HLD	44	0	3	192
HLD	45	0	4	192
HLD	45	0	6	192
STR	46	0	3
SI_	46	0	3	96	288	0
STR	46	0	4
SI_	46	0	4	96	288	7
TAP	47	192	1
TAP	47	192	6
HLD	48	0	2	192
HLD	48	192	3	192
TAP	49	0	2
TAP	49	96	2
TAP	49	192	2
TAP	49	192	3
HLD	50	0	5	192
HLD	50	192	4	192
TAP	51	0	5
TAP	51	96	5
TAP	51	192	4
TAP	51	192	5
TAP	52	0	3
TAP	52	0	6
TAP	52	192	5
TAP	53	0	1
TAP	53	0	4
TAP	53	192	2
HLD	54	0	3	192
HLD	54	0	6	192
TAP	55	0	5
TAP	55	96	5
TAP	55	192	4
TAP	55	192	6
STR	56	0	0
SI_	56	0	0	96	240	2
STR	56	0	7
SI_	56	0	7	96	240	3
TAP	57	192	1
TAP	57	192	4
STR	58	0	3
SI_	58	0	3	96	240	7
STR	58	0	4
SI_	58	0	4	96	240	6
TAP	59	192	0
TAP	59	192	5
BRK	60	0	4
BRK	60	0	6
BRK	61	0	1
BRK	61	0	3
TAP	62	0	0
TAP	62	0	7
TAP	62	96	0
TAP	62	96	7
STR	62	192	0
SCR	62	192	0	96	192	3
STR	62	192	7
SCL	62	192	7	96	192	4
TAP	64	0	2
TAP	64	96	2
TAP	64	192	1
TAP	64	192	3
TAP	65	0	5
TAP	65	96	5
TAP	65	192	4
TAP	65	192	6
TAP	66	0	0
TAP	66	0	1
TAP	66	192	6
TAP	66	192	7
TAP	67	0	5
TAP	67	96	4
TAP	67	192	3
TAP	67	192	6
TAP	68	0	5
TAP	68	96	5
TAP	68	192	4
TAP	68	192	6
TAP	69	0	2
TAP	69	96	2
TAP	69	192	1
TAP	69	192	3
TAP	70	0	6
TAP	70	0	7
TAP	70	192	0
TAP	70	192	1
TAP	71	0	2
TAP	71	0	3
TAP	71	96	2
TAP	71	96	3
TAP	71	192	1
TAP	71	192	4
TAP	72	0	6
TAP	72	0	7
TAP	72	96	6
TAP	72	96	7
STR	72	192	6
SI_	72	192	6	96	192	3
STR	72	192	7
SI_	72	192	7	96	192	2
TAP	73	192	1
TAP	73	192	4
TAP	74	0	0
TAP	74	0	1
TAP	74	96	0
TAP	74	96	1
STR	74	192	0
SI_	74	192	0	96	192	5
STR	74	192	1
SI_	74	192	1	96	192	4
TAP	75	192	3
TAP	75	192	6
TAP	76	0	6
TAP	76	96	6
TAP	76	192	5
TAP	76	192	7
TAP	77	0	1
TAP	77	96	1
TAP	77	192	0
TAP	77	192	2
HLD	78	0	0	192
HLD	78	0	7	192
TAP	79	0	0
TAP	79	0	7
TAP	79	96	0
TAP	79	96	7
BRK	79	192	1
BRK	79	192	6
TAP	80	0	5
TAP	80	96	4
TAP	80	192	3
TAP	80	192	6
TAP	81	0	2
TAP	81	96	3
TAP	81	192	1
TAP	81	192	4
TAP	82	0	6
TAP	82	0	7
TAP	82	192	0
TAP	82	192	1
TAP	83	0	6
TAP	83	96	7
TAP	83	192	0
TAP	83	192	5
TAP	84	0	2
TAP	84	96	3
TAP	84	192	1
TAP	84	192	4
TAP	85	0	5
TAP	85	96	4
TAP	85	192	3
TAP	85	192	6
TAP	86	0	0
TAP	86	0	1
TAP	86	192	6
TAP	86	192	7
TAP	87	0	0
TAP	87	0	1
TAP	87	96	0
TAP	87	96	1
TAP	87	192	2
TAP	87	192	7
TAP	88	0	4
TAP	88	0	5
TAP	88	96	4
TAP	88	96	5
STR	88	192	4
SI_	88	192	4	96	192	1
STR	88	192	5
SI_	88	192	5	96	192	0
TAP	89	192	2
TAP	89	192	7
TAP	90	0	2
TAP	90	0	3
TAP	90	96	2
TAP	90	96	3
STR	90	192	2
SI_	90	192	2	96	192	7
STR	90	192	3
SI_	90	192	3	96	192	6
TAP	91	192	0
TAP	91	192	5
HLD	92	0	5	192
HLD	92	192	6	192
HLD	93	0	7	192
STR	93	192	0
SF_	93	192	0	96	480	4
TAP	95	192	2
TAP	95	192	6
HLD	96	0	1	192
HLD	96	192	3	192
TAP	97	0	2
TAP	97	96	2
TAP	97	192	1
TAP	97	192	3
HLD	98	0	6	192
HLD	98	192	4	192
TAP	99	0	5
TAP	99	96	5
TAP	99	192	4
TAP	99	192	6
HLD	100	0	2	192
HLD	100	192	0	192
TAP	101	0	1
TAP	101	96	1
TAP	101	192	0
TAP	101	192	2
HLD	102	0	0	192
HLD	102	0	7	192
TAP	103	0	0
TAP	103	0	7
TAP	103	96	0
TAP	103	96	7
BRK	103	192	1
BRK	103	192	6
TAP	104	0	6
TAP	104	96	6
TAP	104	192	6
TAP	104	192	7
TAP	105	0	1
TAP	105	96	1
TAP	105	192	0
TAP	105	192	1
TAP	106	0	5
TAP	106	96	5
TAP	106	192	4
TAP	106	192	5
TAP	107	0	2
TAP	107	0	3
TAP	107	96	2
TAP	107	96	3
TAP	107	192	1
TAP	107	192	4
STR	108	0	0
SUR	108	0	0	96	480	7
STR	108	0	1
SCR	108	0	1	96	480	6
TAP	110	0	0
TAP	110	96	0
TAP	110	192	7
TAP	110	288	7
TAP	111	0	0
TAP	111	0	7
TAP	111	96	1
TAP	111	96	6
BRK	111	192	2
BRK	111	192	5

T_REC_TAP	249
T_REC_BRK	14
T_REC_XTP	0
T_REC_HLD	42
T_REC_XHO	0
T_REC_STR	24
T_REC_BST	0
T_REC_XST	0
T_REC_TTP	0
T_REC_THO	0
T_REC_SLD	24
T_REC_ALL	353
T_NUM_TAP	273
T_NUM_BRK	14
T_NUM_HLD	42
T_NUM_SLD	24
T_NUM_ALL	353
T_JUDGE_TAP	287
T_JUDGE_HLD	176
T_JUDGE_SLD	24
T_JUDGE_ALL	487
TTM_EACHPAIRS	102
TTM_SCR_TAP	136500
TTM_SCR_BRK	36400
TTM_SCR_HLD	42000
TTM_SCR_SLD	36000
TTM_SCR_ALL	250900
TTM_SCR_S	242050
TTM_SCR_SS	249500
TTM_RAT_ACV	10056

