VERSION	0.00.00	1.03.00
FES_MODE	0
BPM_DEF	220.000	220.000	220.000	220.000
MET_DEF	4	4
RESOLUTION	384
CLK_DEF	384
COMPATIBLE_CODE	MA2

BPM	0	0	220.000

HLD	2	0	0	768
HLD	6	0	7	768
STR	10	0	0
SI_	10	0	0	96	288	4
STR	12	0	7
SI_	12	0	7	96	288	3
STR	14	0	0
SI_	14	0	0	96	288	4
TAP	16	0	7
TAP	16	192	7
BRK	17	0	0
BRK	17	0	7
TAP	18	0	0
TAP	18	192	0
TAP	19	0	0
TAP	20	0	7
TAP	20	192	7
TAP	21	0	7
TAP	22	0	0
TAP	22	192	0
TAP	23	0	0
TAP	23	0	1
TAP	24	0	2
TAP	24	192	2
TAP	25	0	3
TAP	25	0	4
TAP	26	0	4
TAP	26	192	4
TAP	27	0	4
TAP	27	0	5
TAP	28	0	6
TAP	28	192	6
TAP	29	0	0
TAP	29	0	7
TAP	29	192	0
TAP	29	192	7
BRK	30	0	1
BRK	30	0	6
TAP	32	0	7
TAP	32	192	7
TAP	33	0	6
TAP	33	192	6
HLD	34	0	5	384
TAP	36	0	4
TAP	36	192	4
TAP	37	0	3
TAP	37	192	3
HLD	38	0	2	384
TAP	40	0	1
TAP	40	192	1
TAP	41	0	0
TAP	41	192	0
HLD	42	0	7	384
TAP	44	0	0
TAP	44	192	0
TAP	45	0	7
TAP	45	192	7
STR	46	0	0
SI_	46	0	0	96	288	3
STR	46	0	7
SI_	46	0	7	96	288	4
TAP	48	0	2
TAP	48	0	3
TAP	48	192	2
TAP	48	192	3
TAP	49	0	1
TAP	49	0	4
TAP	50	0	4
TAP	50	0	5
TAP	50	192	4
TAP	50	192	5
TAP	51	0	3
TAP	51	0	6
TAP	52	0	3
TAP	52	192	3
TAP	53	0	4
TAP	53	192	4
TAP	54	0	3
TAP	54	0	4
TAP	54	192	3
TAP	54	192	4
TAP	55	0	2
TAP	55	0	5
TAP	56	0	1
TAP	56	192	1
TAP	57	0	0
TAP	57	192	0
TAP	57	192	7
TAP	58	0	6
TAP	58	192	6
TAP	59	0	7
TAP	59	192	0
TAP	59	192	7
TAP	60	0	0
TAP	60	0	7
TAP	61	0	0
TAP	61	0	7
STR	62	0	0
SI_	62	0	0	96	288	3
STR	62	0	7
SI_	62	0	7	96	288	4
TAP	64	0	3
TAP	64	192	3
TAP	65	0	4
TAP	65	192	4
HLD	66	0	5	192
TAP	67	0	5
TAP	67	96	5
TAP	67	192	5
TAP	68	0	4
TAP	68	192	4
TAP	69	0	3
TAP	69	192	3
HLD	70	0	2	192
TAP	71	0	2
TAP	71	96	2
TAP	71	192	2
TAP	72	0	1
TAP	72	96	1
TAP	72	192	1
TAP	73	0	1
TAP	73	96	1
TAP	73	192	1
TAP	74	0	0
TAP	74	96	0
TAP	74	192	0
TAP	75	0	0
TAP	75	96	0
TAP	75	192	0
TAP	76	0	7
TAP	76	96	7
TAP	76	192	7
TAP	77	0	7
TAP	77	96	7
TAP	77	192	7
STR	78	0	6
SI_	78	0	6	96	288	3
TAP	80	0	4
TAP	80	192	4
TAP	81	0	3
TAP	81	192	3
HLD	82	0	2	192
TAP	83	0	2
TAP	83	96	2
TAP	83	192	2
TAP	84	0	3
TAP	84	192	3
TAP	85	0	4
TAP	85	192	4
HLD	86	0	5	192
TAP	87	0	5
TAP	87	96	5
TAP	87	192	5
TAP	88	0	6
TAP	88	96	6
TAP	88	192	6
TAP	89	0	6
TAP	89	96	6
TAP	89	192	6
TAP	90	0	7
TAP	90	96	7
TAP	90	192	7
TAP	91	0	7
TAP	91	96	7
TAP	91	192	7
TAP	92	0	0
TAP	92	96	0
TAP	92	192	0
TAP	93	0	0
TAP	93	96	0
TAP	93	192	0
STR	94	0	1
SI_	94	0	1	96	288	4
HLD	96	0	3	384
HLD	96	0	5	384
HLD	98	0	2	384
HLD	98	0	4	384
HLD	100	0	2	384
HLD	100	0	5	384
TAP	102	0	3
TAP	102	0	4
TAP	102	192	3
TAP	102	192	4
TAP	103	0	3
TAP	103	96	4
TAP	103	192	3
TAP	104	0	4
TAP	104	0	5
TAP	104	192	4
TAP	104	192	5
TAP	105	0	4
TAP	105	0	5
TAP	106	0	6
TAP	106	0	7
TAP	106	192	6
TAP	106	192	7
TAP	107	0	0
TAP	107	96	7
TAP	107	192	0
TAP	108	0	0
TAP	108	0	1
TAP	108	192	0
TAP	108	192	1
TAP	109	0	0
TAP	109	0	1
TAP	110	0	2
TAP	110	0	3
TAP	110	192	2
TAP	110	192	3
TAP	111	0	3
TAP	111	96	4
BRK	111	192	3

T_REC_TAP	174
T_REC_BRK	5
T_REC_XTP	0
T_REC_HLD	15
T_REC_XHO	0
T_REC_STR	9
T_REC_BST	0
T_REC_XST	0
T_REC_TTP	0
T_REC_THO	0
T_REC_SLD	9
T_REC_ALL	212
T_NUM_TAP	183
T_NUM_BRK	5
T_NUM_HLD	15
T_NUM_SLD	9
T_NUM_ALL	212
T_JUDGE_TAP	188
T_JUDGE_HLD	120
T_JUDGE_SLD	9
T_JUDGE_ALL	317
TTM_EACHPAIRS	37
TTM_SCR_TAP	91500
TTM_SCR_BRK	13000
TTM_SCR_HLD	15000
TTM_SCR_SLD	13500
TTM_SCR_ALL	133000
TTM_SCR_S	128550
TTM_SCR_SS	132500
TTM_RAT_ACV	10037

