VERSION	0.00.00	1.03.00
FES_MODE	0
BPM_DEF	185.000	185.000	185.000	185.000
MET_DEF	4	4
RESOLUTION	384
CLK_DEF	384
COMPATIBLE_CODE	MA2

BPM	0	0	185.000
MET	0	0	4	4

TAP	2	0	2
TAP	2	96	1
STR	2	192	0
SI_	2	192	0	96	48	4
BRK	2	288	7
STR	3	0	6
SI_	3	0	6	96	48	0
TAP	3	48	6
STR	3	96	2
SI_	3	96	2	96	48	4
TAP	3	144	2
STR	3	192	6
SI_	3	192	6	96	48	0
TAP	3	240	6
STR	3	288	2
SI_	3	288	2	96	48	4
TAP	3	336	2
STR	4	0	6
SI_	4	0	6	96	48	0
TAP	4	48	6
STR	4	96	2
SI_	4	96	2	96	48	4
TAP	4	144	2
TAP	4	192	6
TAP	4	240	6
TAP	4	288	0
TAP	4	288	5
STR	5	0	1
SI_	5	0	1	96	48	7
TAP	5	48	1
STR	5	96	5
SI_	5	96	5	96	48	3
TAP	5	144	5
STR	5	192	1
SI_	5	192	1	96	48	7
TAP	5	240	1
STR	5	288	5
SI_	5	288	5	96	48	3
TAP	5	336	5
STR	6	0	1
SI_	6	0	1	96	48	7
TAP	6	48	1
STR	6	96	5
SI_	6	96	5	96	48	3
TAP	6	144	5
TAP	6	192	1
TAP	6	240	1
TAP	6	288	2
TAP	6	288	7
STR	7	0	6
SI_	7	0	6	96	48	0
TAP	7	48	6
STR	7	96	2
SI_	7	96	2	96	48	4
TAP	7	144	2
STR	7	192	6
SI_	7	192	6	96	48	0
TAP	7	240	6
STR	7	288	2
SI_	7	288	2	96	48	4
TAP	7	336	2
STR	8	0	6
SI_	8	0	6	96	48	0
TAP	8	48	6
STR	8	96	2
SI_	8	96	2	96	48	4
TAP	8	144	2
TAP	8	192	6
TAP	8	240	6
TAP	8	288	0
TAP	8	288	5
TAP	8	336	6
TAP	8	360	7
STR	9	0	6
SI_	9	0	6	96	48	3
TAP	9	96	2
STR	9	144	2
SI_	9	144	2	96	48	7
TAP	9	240	4
HLD	9	288	4	96
STR	10	0	5
SI_	10	0	5	96	48	1
STR	10	48	6
SI_	10	48	6	96	48	2
BRK	10	240	7
BRK	10	288	0
TAP	11	0	0
TAP	11	0	4
TAP	11	96	2
TAP	11	96	6
TAP	11	144	1
TAP	11	144	5
STR	11	240	3
SCL	11	240	3	96	48	0
STR	11	240	7
SCL	11	240	7	96	48	4
TAP	11	336	3
TAP	11	336	7
TAP	12	48	1
TAP	12	48	5
STR	12	96	2
SI_	12	96	2	96	48	7
STR	12	96	6
SI_	12	96	6	96	48	3
BRK	12	192	2
BRK	12	192	6
TAP	13	0	4
TAP	13	0	5
TAP	13	48	3
TAP	13	96	4
TAP	13	96	5
TAP	13	144	6
TAP	13	192	4
TAP	13	192	5
TAP	13	240	3
TAP	13	288	4
TAP	13	288	5
TAP	13	336	6
TAP	14	0	3
TAP	14	24	4
TAP	14	48	3
TAP	14	72	4
TAP	14	96	3
TAP	14	144	1
TAP	14	192	2
TAP	14	192	3
TAP	14	240	4
TAP	14	288	2
TAP	14	288	3
TAP	14	336	1
TAP	15	0	4
TAP	15	24	3
TAP	15	48	4
TAP	15	72	3
TAP	15	96	4
TAP	15	144	6
TAP	15	192	4
TAP	15	192	5
TAP	15	240	3
TAP	15	288	4
TAP	15	288	5
TAP	15	336	6
TAP	16	0	3
TAP	16	24	4
TAP	16	48	3
TAP	16	72	4
TAP	16	96	3
TAP	16	144	1
TAP	16	192	2
TAP	16	192	3
TAP	16	240	4
TAP	16	288	2
TAP	16	288	3
TAP	16	336	1
TAP	17	0	4
TAP	17	24	3
TAP	17	48	4
TAP	17	72	3
TAP	17	96	4
TAP	17	144	6
TAP	17	192	4
TAP	17	192	5
TAP	17	240	3
TAP	17	288	4
TAP	17	288	5
TAP	17	336	6
TAP	18	0	5
TAP	18	0	7
TAP	18	72	2
TAP	18	72	3
TAP	18	144	3
TAP	18	144	6
TAP	18	192	0
TAP	18	192	2
TAP	18	264	4
TAP	18	264	5
TAP	18	336	1
STR	18	336	4
SSL	18	336	4	96	168	0
BRK	19	288	7
BRK	20	0	0
BRK	20	48	1
BRK	20	96	2
BRK	20	144	3
BST	20	192	4
SI_	20	192	4	96	48	1
STR	20	288	0
SI_	20	288	0	96	48	4
STR	21	0	3
SXR	21	0	3	96	144	0
STR	21	288	6
SI_	21	288	6	96	48	3
STR	21	288	7
SI_	21	288	7	96	48	2
STR	22	96	0
SI_	22	96	0	96	48	5
STR	22	96	1
SI_	22	96	1	96	48	4
STR	22	288	2
SCL	22	288	2	96	144	4
STR	22	288	3
SUL	22	288	3	96	144	4
TAP	23	192	1
TAP	23	192	6
TAP	23	288	3
TAP	23	288	4
BRK	24	0	7
BRK	24	48	6
BRK	24	96	5
BRK	24	144	4
BRK	24	192	3
TAP	24	288	3
TAP	24	288	4
TAP	24	336	3
TAP	24	360	4
TAP	25	0	3
TAP	25	24	5
TAP	25	48	3
TAP	25	96	6
TAP	25	120	7
TAP	25	144	6
TAP	25	168	7
TAP	25	192	5
TAP	25	288	0
TAP	25	336	0
TAP	25	360	1
TAP	26	0	2
TAP	26	0	7
TAP	26	48	7
TAP	26	72	6
TAP	26	96	1
TAP	26	96	5
TAP	26	144	1
TAP	26	168	2
TAP	26	192	3
TAP	26	192	6
TAP	26	240	6
TAP	26	264	5
TAP	26	288	0
TAP	26	288	4
TAP	26	336	7
TAP	27	0	0
TAP	27	0	7
TAP	27	48	1
TAP	27	48	6
TAP	27	96	3
TAP	27	96	4
STR	27	144	1
SI_	27	144	1	96	48	5
TAP	27	144	6
BRK	27	240	7
BRK	27	288	7
STR	28	0	0
SCR	28	0	0	96	96	4
STR	28	96	4
SCR	28	96	4	96	96	0
STR	28	192	0
SCR	28	192	0	96	96	4
STR	28	288	4
SCR	28	288	4	96	96	0
STR	29	0	0
SCR	29	0	0	96	96	4
STR	29	96	4
SCR	29	96	4	96	96	0
TAP	29	192	0
TAP	29	288	2
STR	30	0	7
SCL	30	0	7	96	96	3
STR	30	96	3
SCL	30	96	3	96	96	7
STR	30	192	7
SCL	30	192	7	96	96	3
STR	30	288	3
SCL	30	288	3	96	96	7
STR	31	0	7
SCL	31	0	7	96	96	3
STR	31	96	3
SCL	31	96	3	96	96	7
TAP	31	192	7
TAP	31	288	5
TAP	32	0	3
HLD	32	0	4	96
TAP	32	96	5
TAP	32	144	5
TAP	32	240	0
TAP	32	240	1
STR	32	288	3
SXR	32	288	3	96	192	5
STR	32	288	6
SXL	32	288	6	96	192	4
STR	33	288	2
SI_	33	288	2	96	48	7
STR	34	0	5
SI_	34	0	5	96	48	0
STR	34	96	3
SI_	34	96	3	96	48	7
STR	34	192	4
SI_	34	192	4	96	48	0
STR	34	288	3
SCL	34	288	3	96	288	4
TAP	35	0	4
TAP	36	0	0
TAP	36	24	7
TAP	36	48	1
TAP	36	72	6
TAP	36	96	2
TAP	36	120	5
TAP	36	144	3
TAP	36	168	4
TAP	36	192	3
TAP	36	216	4
TAP	36	240	2
TAP	36	264	5
TAP	36	288	1
TAP	36	312	6
TAP	36	336	0
TAP	36	360	7
TAP	37	0	0
TAP	37	12	1
TAP	37	24	2
TAP	37	36	3
TAP	37	48	4
TAP	37	60	5
TAP	37	72	6
TAP	37	84	7
TAP	37	96	0
TAP	37	108	1
TAP	37	120	2
TAP	37	132	3
TAP	37	144	4
TAP	37	156	5
TAP	37	168	6
TAP	37	180	7
TAP	37	192	0
TAP	37	204	1
TAP	37	216	2
TAP	37	228	3
TAP	37	240	4
TAP	37	252	5
TAP	37	264	6
TAP	37	276	7
BRK	37	288	0
STR	38	0	1
SV_	38	0	1	96	48	4
STR	38	0	7
SV_	38	0	7	96	48	4
STR	38	192	0
SV_	38	192	0	96	48	3
STR	38	192	6
SV_	38	192	6	96	48	3
STR	39	0	4
SI_	39	0	4	96	48	0
STR	39	96	2
SLL	39	96	2	96	96	3
STR	39	96	4
SLR	39	96	4	96	96	3
TAP	39	336	2
STR	40	0	2
SCR	40	0	2	96	48	5
STR	40	96	6
SCR	40	96	6	96	48	1
STR	40	192	2
SCR	40	192	2	96	48	5
STR	40	288	7
SUL	40	288	7	96	48	2
STR	41	0	1
SCR	41	0	1	96	48	4
STR	41	96	7
SF_	41	96	7	96	96	3
HLD	42	0	5	96
TAP	42	48	4
HLD	42	96	2	96
TAP	42	144	3
HLD	42	192	6	96
TAP	42	240	4
HLD	42	288	1	96
TAP	42	336	3
HLD	43	0	7	96
TAP	43	48	5
HLD	43	96	0	96
TAP	43	144	2
TAP	43	192	7
TAP	43	288	3
TAP	43	288	4
STR	44	0	1
SUL	44	0	1	96	192	6
STR	44	0	2
SXL	44	0	2	96	192	5
STR	45	0	0
SXL	45	0	0	96	144	0
STR	45	48	7
SXR	45	48	7	96	144	7
STR	46	0	0
SV_	46	0	0	96	48	3
STR	46	0	6
SV_	46	0	6	96	48	3
STR	46	192	1
SV_	46	192	1	96	48	4
STR	46	192	7
SV_	46	192	7	96	48	4
STR	47	0	3
SI_	47	0	3	96	48	7
STR	47	96	3
SLL	47	96	3	96	96	4
STR	47	96	5
SLR	47	96	5	96	96	4
TAP	47	336	5
STR	48	0	5
SCL	48	0	5	96	48	2
STR	48	96	1
SCL	48	96	1	96	48	6
STR	48	192	5
SCL	48	192	5	96	48	2
STR	48	288	0
SUR	48	288	0	96	48	5
STR	49	0	6
SCL	49	0	6	96	48	3
STR	49	96	0
SF_	49	96	0	96	96	4
HLD	50	0	2	96
TAP	50	48	3
HLD	50	96	5	96
TAP	50	144	4
HLD	50	192	1	96
TAP	50	240	3
HLD	50	288	6	96
TAP	50	336	4
HLD	51	0	0	96
TAP	51	48	2
HLD	51	96	7	96
TAP	51	144	5
HLD	51	192	0	96
TAP	51	240	1
STR	51	288	5
SLR	51	288	5	96	96	3
STR	52	0	3
SI_	52	0	3	96	48	1
STR	52	192	1
SCL	52	192	1	96	144	3
SV_	52	192	1	96	72	6
STR	53	96	0
SI_	53	96	0	96	48	4
STR	53	96	7
SI_	53	96	7	96	48	1
BRK	53	288	2
BRK	53	288	5
STR	54	0	6
SI_	54	0	6	96	48	0
TAP	54	48	6
STR	54	96	1
SI_	54	96	1	96	48	5
TAP	54	144	1
STR	54	192	6
SI_	54	192	6	96	48	0
TAP	54	240	6
STR	54	288	1
SI_	54	288	1	96	48	5
TAP	54	336	1
STR	55	0	6
SI_	55	0	6	96	48	0
TAP	55	48	6
STR	55	96	1
SI_	55	96	1	96	48	5
TAP	55	144	1
TAP	55	192	6
TAP	55	240	7
TAP	55	288	0
TAP	55	288	6
STR	56	0	1
SI_	56	0	1	96	48	7
TAP	56	48	1
STR	56	96	6
SI_	56	96	6	96	48	2
TAP	56	144	6
STR	56	192	1
SI_	56	192	1	96	48	7
TAP	56	240	1
STR	56	288	6
SI_	56	288	6	96	48	2
TAP	56	336	6
STR	57	0	1
SI_	57	0	1	96	48	7
TAP	57	48	1
STR	57	96	6
SI_	57	96	6	96	48	2
TAP	57	144	6
TAP	57	192	1
TAP	57	240	0
TAP	57	288	1
TAP	57	288	7
STR	58	0	6
SI_	58	0	6	96	48	0
TAP	58	48	6
STR	58	96	1
SI_	58	96	1	96	48	5
TAP	58	144	1
STR	58	192	6
SI_	58	192	6	96	48	0
TAP	58	240	6
STR	58	288	1
SI_	58	288	1	96	48	5
TAP	58	336	1
STR	59	0	6
SI_	59	0	6	96	48	0
TAP	59	48	6
STR	59	96	1
SI_	59	96	1	96	48	5
TAP	59	144	1
TAP	59	192	6
TAP	59	240	7
TAP	59	288	0
TAP	59	288	6
TAP	59	336	1
TAP	59	360	0
STR	60	0	1
SI_	60	0	1	96	48	4
TAP	60	96	5
STR	60	144	5
SI_	60	144	5	96	48	0
TAP	60	240	3
HLD	60	288	3	96
STR	61	0	2
SI_	61	0	2	96	48	6
STR	61	48	1
SI_	61	48	1	96	48	5
BRK	61	240	0
BRK	61	288	7
TAP	62	0	3
TAP	62	0	7
TAP	62	96	1
TAP	62	96	5
TAP	62	144	2
TAP	62	144	6
STR	62	240	0
SCR	62	240	0	96	48	3
STR	62	240	4
SCR	62	240	4	96	48	7
TAP	62	336	0
TAP	62	336	4
TAP	63	48	2
TAP	63	48	6
STR	63	96	1
SI_	63	96	1	96	48	4
STR	63	96	5
SI_	63	96	5	96	48	0
BRK	63	192	1
BRK	63	192	5
TAP	63	288	2
TAP	63	288	6
STR	64	0	1
SCR	64	0	1	96	96	5
STR	64	96	5
SCR	64	96	5	96	96	1
STR	64	192	1
SCR	64	192	1	96	96	5
STR	64	288	5
SCR	64	288	5	96	96	1
STR	65	0	1
SCR	65	0	1	96	96	5
STR	65	96	5
SCR	65	96	5	96	96	1
TAP	65	192	1
TAP	65	288	3
STR	66	0	6
SCL	66	0	6	96	96	2
STR	66	96	2
SCL	66	96	2	96	96	6
STR	66	192	6
SCL	66	192	6	96	96	2
STR	66	288	2
SCL	66	288	2	96	96	6
STR	67	0	6
SCL	67	0	6	96	96	2
STR	67	96	2
SCL	67	96	2	96	96	6
TAP	67	192	6
TAP	67	288	4
HLD	68	0	3	96
TAP	68	0	4
TAP	68	96	2
TAP	68	144	2
TAP	68	240	6
TAP	68	240	7
STR	68	288	1
SXR	68	288	1	96	192	3
STR	68	288	4
SXL	68	288	4	96	192	2
STR	69	288	5
SI_	69	288	5	96	48	0
STR	70	0	2
SI_	70	0	2	96	48	7
STR	70	96	4
SI_	70	96	4	96	48	0
STR	70	192	3
SI_	70	192	3	96	48	7
STR	70	288	4
SCR	70	288	4	96	288	3
TAP	71	0	3
STR	72	0	2
SI_	72	0	2	96	48	7
STR	72	0	3
SI_	72	0	3	96	48	6
STR	72	192	4
SI_	72	192	4	96	48	1
STR	72	192	5
SI_	72	192	5	96	48	0
STR	73	0	3
SI_	73	0	3	96	48	7
STR	73	48	4
SI_	73	48	4	96	48	0
STR	73	96	3
SI_	73	96	3	96	48	1
STR	73	144	4
SI_	73	144	4	96	48	6
BRK	73	288	0
STR	74	0	4
SV_	74	0	4	96	48	1
SV_	74	0	4	96	48	7
STR	74	192	3
SV_	74	192	3	96	48	0
SV_	74	192	3	96	48	6
TAP	75	0	0
STR	75	0	4
SI_	75	0	4	96	48	0
STR	75	96	2
SLL	75	96	2	96	96	3
STR	75	96	4
SLR	75	96	4	96	96	3
TAP	75	336	6
STR	76	0	6
SCR	76	0	6	96	48	1
STR	76	96	2
SCR	76	96	2	96	48	5
TAP	76	144	2
STR	76	192	6
SCR	76	192	6	96	48	1
TAP	76	240	6
STR	76	288	3
SUL	76	288	3	96	48	6
TAP	76	336	3
STR	77	0	5
SCR	77	0	5	96	48	0
TAP	77	48	5
STR	77	96	3
SF_	77	96	3	96	96	7
STR	78	0	2
SI_	78	0	2	96	48	0
STR	78	0	3
SI_	78	0	3	96	48	6
STR	78	192	4
SI_	78	192	4	96	48	1
STR	78	192	5
SI_	78	192	5	96	48	7
STR	79	0	2
SXR	79	0	2	96	96	1
STR	79	0	4
SXL	79	0	4	96	96	5
TAP	79	288	3
TAP	79	288	4
HLD	80	0	0	96
HLD	80	0	4	96
TAP	80	144	3
TAP	80	144	7
HLD	80	192	3	96
HLD	80	192	7	96
BRK	80	336	0
BRK	81	0	0
BRK	81	48	3
BRK	81	96	4
BRK	81	144	0
BRK	81	192	3
TAP	81	288	1
TAP	81	288	6
STR	82	0	3
SV_	82	0	3	96	48	0
SV_	82	0	3	96	48	6
STR	82	192	4
SV_	82	192	4	96	48	1
SV_	82	192	4	96	48	7
STR	83	0	3
SI_	83	0	3	96	48	7
TAP	83	0	7
STR	83	96	3
SLL	83	96	3	96	96	4
STR	83	96	5
SLR	83	96	5	96	96	4
TAP	83	336	1
STR	84	0	1
SCL	84	0	1	96	48	6
STR	84	96	5
SCL	84	96	5	96	48	2
TAP	84	144	5
STR	84	192	1
SCL	84	192	1	96	48	6
TAP	84	240	1
STR	84	288	4
SUR	84	288	4	96	48	1
TAP	84	336	4
STR	85	0	2
SCL	85	0	2	96	48	7
TAP	85	48	2
STR	85	96	4
SF_	85	96	4	96	96	0
HLD	86	0	1	96
TAP	86	48	0
HLD	86	96	6	96
TAP	86	144	7
HLD	86	192	2	96
TAP	86	240	0
HLD	86	288	5	96
TAP	86	336	7
HLD	87	0	3	96
TAP	87	48	1
TAP	87	96	4
TAP	87	144	4
TAP	87	192	1
TAP	87	192	6
STR	87	288	5
SI_	87	288	5	96	48	0
STR	88	0	1
SI_	88	0	1	96	48	4
STR	88	96	6
SI_	88	96	6	96	48	3
STR	88	192	2
SI_	88	192	2	96	48	7
STR	88	288	5
SI_	88	288	5	96	48	0
STR	89	0	3
SI_	89	0	3	96	48	7
STR	89	96	4
SF_	89	96	4	96	96	0
STR	90	0	1
SI_	90	0	1	96	48	7
TAP	90	48	1
STR	90	96	6
SI_	90	96	6	96	48	2
TAP	90	144	6
STR	90	192	3
SI_	90	192	3	96	48	5
TAP	90	240	3
STR	90	288	6
SI_	90	288	6	96	48	2
TAP	90	336	6
STR	91	0	1
SI_	91	0	1	96	48	7
TAP	91	48	1
STR	91	96	6
SI_	91	96	6	96	48	2
TAP	91	144	6
TAP	91	192	3
TAP	91	240	3
TAP	91	288	2
TAP	91	288	4
STR	92	0	6
SI_	92	0	6	96	48	0
TAP	92	48	6
STR	92	96	1
SI_	92	96	1	96	48	5
TAP	92	144	1
STR	92	192	4
SI_	92	192	4	96	48	2
TAP	92	240	4
STR	92	288	1
SI_	92	288	1	96	48	5
TAP	92	336	1
STR	93	0	6
SI_	93	0	6	96	48	0
TAP	93	48	6
STR	93	96	1
SI_	93	96	1	96	48	5
TAP	93	144	1
TAP	93	192	4
TAP	93	240	4
TAP	93	288	3
TAP	93	288	5
STR	94	0	1
SI_	94	0	1	96	48	7
TAP	94	48	1
STR	94	96	6
SI_	94	96	6	96	48	2
TAP	94	144	6
STR	94	192	3
SI_	94	192	3	96	48	5
TAP	94	240	3
STR	94	288	6
SI_	94	288	6	96	48	2
TAP	94	336	6
STR	95	0	1
SI_	95	0	1	96	48	7
TAP	95	48	1
STR	95	96	6
SI_	95	96	6	96	48	2
TAP	95	144	6
TAP	95	192	3
TAP	95	240	3
TAP	95	288	2
TAP	95	288	4
TAP	95	336	5
TAP	95	360	4
STR	96	0	5
SI_	96	0	5	96	48	0
TAP	96	96	1
STR	96	144	1
SI_	96	144	1	96	48	4
TAP	96	240	7
HLD	96	288	7	96
STR	97	0	6
SI_	97	0	6	96	48	2
STR	97	48	5
SI_	97	48	5	96	48	1
BRK	97	240	0
BRK	97	288	7
TAP	98	0	2
TAP	98	0	6
TAP	98	96	0
TAP	98	96	4
TAP	98	144	3
TAP	98	144	7
STR	98	240	1
SCR	98	240	1	96	48	4
STR	98	240	5
SCR	98	240	5	96	48	0
TAP	98	336	1
TAP	98	336	5
TAP	99	48	3
TAP	99	48	7
STR	99	96	2
SI_	99	96	2	96	48	5
STR	99	96	6
SI_	99	96	6	96	48	1
BRK	99	192	2
BRK	99	192	6
BRK	99	288	3
BRK	99	288	7
TAP	100	0	1
TAP	100	0	5
TAP	100	96	3
TAP	100	96	7
TAP	100	144	0
TAP	100	144	4
STR	100	240	2
SCL	100	240	2	96	48	7
STR	100	240	6
SCL	100	240	6	96	48	3
TAP	100	336	2
TAP	100	336	6
TAP	101	48	0
TAP	101	48	4
STR	101	96	1
SI_	101	96	1	96	48	6
STR	101	96	5
SI_	101	96	5	96	48	2
BRK	101	192	1
BRK	101	192	5
TAP	102	240	7
TAP	102	256	7
TAP	102	272	7
TAP	102	288	7
TAP	102	336	1
TAP	102	336	5
TAP	103	48	3
TAP	103	48	7
STR	103	96	0
SI_	103	96	0	96	48	3
STR	103	96	4
SI_	103	96	4	96	48	7
BRK	103	192	0
BRK	103	192	4

T_REC_TAP	371
T_REC_BRK	41
T_REC_XTP	0
T_REC_HLD	27
T_REC_XHO	0
T_REC_STR	211
T_REC_BST	1
T_REC_XST	0
T_REC_TTP	0
T_REC_THO	0
T_REC_SLD	217
T_REC_ALL	868
T_NUM_TAP	582
T_NUM_BRK	42
T_NUM_HLD	27
T_NUM_SLD	217
T_NUM_ALL	868
T_JUDGE_TAP	624
T_JUDGE_HLD	54
T_JUDGE_SLD	217
T_JUDGE_ALL	895
TTM_EACHPAIRS	110
TTM_SCR_TAP	291000
TTM_SCR_BRK	109200
TTM_SCR_HLD	27000
TTM_SCR_SLD	325500
TTM_SCR_ALL	752700
TTM_SCR_S	726050
TTM_SCR_SS	748500
TTM_RAT_ACV	10056

