VERSION	0.00.00	1.03.00
FES_MODE	0
BPM_DEF	185.000	185.000	185.000	185.000
MET_DEF	4	4
RESOLUTION	384
CLK_DEF	384
COMPATIBLE_CODE	MA2

BPM	0	0	185.000
MET	0	0	4	4

TAP	2	0	3
TAP	2	0	4
TAP	2	96	3
TAP	2	96	4
TAP	2	192	3
TAP	2	192	4
BRK	2	288	2
BRK	2	288	5
TAP	3	0	2
TAP	3	0	3
TAP	3	96	1
TAP	3	96	4
TAP	3	192	4
TAP	3	192	5
TAP	3	288	3
TAP	3	288	6
TAP	4	0	2
TAP	4	0	3
TAP	4	96	1
TAP	4	96	4
TAP	4	192	5
TAP	4	240	4
TAP	4	288	5
TAP	5	0	4
TAP	5	0	5
TAP	5	96	1
TAP	5	96	7
TAP	5	192	2
TAP	5	192	3
TAP	5	288	0
TAP	5	288	6
TAP	6	0	4
TAP	6	0	5
TAP	6	96	1
TAP	6	96	7
TAP	6	192	2
TAP	6	240	3
TAP	6	288	2
TAP	7	0	0
TAP	7	0	1
TAP	7	96	2
TAP	7	96	7
TAP	7	192	6
TAP	7	192	7
TAP	7	288	0
TAP	7	288	5
TAP	8	0	0
TAP	8	0	1
TAP	8	96	2
TAP	8	96	7
TAP	8	192	6
TAP	8	240	7
TAP	8	288	6
HLD	9	0	1	96
TAP	9	96	0
HLD	9	192	6	96
TAP	9	288	7
TAP	10	0	0
TAP	10	48	7
TAP	10	96	1
TAP	10	144	6
BRK	10	240	0
BRK	10	288	0
TAP	11	0	7
TAP	11	96	1
TAP	11	144	2
TAP	11	144	3
TAP	11	240	2
TAP	11	240	3
HLD	11	336	4	96
TAP	12	48	5
TAP	12	96	4
TAP	12	96	5
TAP	12	192	1
TAP	12	192	6
TAP	12	288	7
TAP	13	0	3
TAP	13	48	4
TAP	13	96	3
TAP	13	144	4
TAP	13	192	3
TAP	13	240	4
TAP	13	288	3
TAP	13	288	5
TAP	14	0	5
TAP	14	48	4
TAP	14	96	5
TAP	14	144	4
TAP	14	192	5
TAP	14	240	4
TAP	14	288	3
TAP	14	288	5
TAP	15	0	2
TAP	15	48	3
TAP	15	96	2
TAP	15	144	3
TAP	15	192	2
TAP	15	240	3
TAP	15	288	2
TAP	15	288	4
TAP	16	0	6
TAP	16	48	1
TAP	16	96	6
TAP	16	144	1
TAP	16	192	6
TAP	16	240	1
TAP	16	288	0
TAP	16	288	7
TAP	17	0	0
TAP	17	48	7
TAP	17	96	0
TAP	17	144	7
TAP	17	192	0
TAP	17	240	7
TAP	17	288	1
TAP	17	288	6
HLD	18	0	4	72
HLD	18	0	5	72
TAP	18	144	2
TAP	18	144	3
HLD	18	192	2	72
HLD	18	192	3	72
TAP	18	336	4
STR	18	336	5
SXL	18	336	5	96	240	1
SXR	18	336	5	96	240	1
HLD	20	0	3	96
TAP	20	96	4
TAP	20	144	3
HLD	20	192	5	96
TAP	20	288	1
STR	20	336	1
SI_	20	336	1	96	48	4
TAP	21	48	7
STR	21	96	7
SI_	21	96	7	96	48	3
TAP	21	288	1
TAP	21	288	6
TAP	22	0	6
TAP	22	48	4
TAP	22	96	5
TAP	22	192	1
TAP	22	240	3
TAP	22	288	2
TAP	23	0	6
TAP	23	48	0
TAP	23	96	7
TAP	23	192	3
TAP	23	192	4
TAP	23	288	1
TAP	23	288	6
HLD	24	0	4	96
TAP	24	96	3
TAP	24	144	4
HLD	24	192	2	96
TAP	24	288	6
TAP	24	336	3
TAP	25	0	3
TAP	25	48	3
TAP	25	96	3
TAP	25	144	3
TAP	25	192	3
TAP	25	288	2
TAP	25	288	5
TAP	26	0	1
TAP	26	48	3
TAP	26	96	2
TAP	26	192	6
TAP	26	240	4
TAP	26	288	5
TAP	27	0	0
TAP	27	48	7
TAP	27	96	1
TAP	27	144	6
TAP	27	240	0
BRK	27	288	0
HLD	28	0	0	96
TAP	28	96	1
HLD	28	192	7	96
TAP	28	288	6
HLD	29	0	3	96
TAP	29	96	1
HLD	29	192	4	96
TAP	29	288	6
TAP	30	0	1
TAP	30	48	0
TAP	30	96	1
TAP	30	96	7
TAP	30	192	6
TAP	30	240	7
TAP	30	288	0
TAP	30	288	6
TAP	31	0	1
TAP	31	48	6
TAP	31	96	2
TAP	31	144	5
TAP	31	192	3
TAP	31	192	4
TAP	31	288	1
TAP	31	288	6
TAP	32	0	0
TAP	32	0	1
TAP	32	72	0
TAP	32	72	1
TAP	32	144	2
TAP	32	144	7
TAP	32	240	4
TAP	32	288	3
TAP	33	0	6
TAP	33	0	7
TAP	33	72	6
TAP	33	72	7
TAP	33	144	0
TAP	33	144	5
TAP	33	240	3
TAP	33	288	4
TAP	34	0	0
TAP	34	0	4
TAP	34	96	1
TAP	34	96	5
TAP	34	192	2
TAP	34	192	6
TAP	34	288	3
TAP	34	288	7
STR	35	0	0
SCL	35	0	0	96	96	5
STR	35	0	4
SCL	35	0	4	96	96	1
TAP	36	0	2
TAP	36	48	3
TAP	36	96	1
TAP	36	144	4
TAP	36	192	2
STR	36	288	2
SXR	36	288	2	96	288	7
STR	36	288	3
SXL	36	288	3	96	288	6
STR	38	0	6
SCL	38	0	6	96	48	3
TAP	38	96	0
STR	38	192	1
SCR	38	192	1	96	48	4
TAP	38	288	7
STR	39	0	7
SI_	39	0	7	96	48	3
STR	39	96	0
SI_	39	96	0	96	48	4
TAP	39	192	7
TAP	39	288	1
TAP	39	288	6
STR	40	0	2
SCL	40	0	2	96	48	7
TAP	40	96	4
STR	40	192	5
SCR	40	192	5	96	48	0
TAP	40	288	3
STR	41	0	3
SUR	41	0	3	96	120	4
TAP	41	288	1
TAP	41	288	6
TAP	42	0	0
STR	42	96	0
SI_	42	96	0	96	96	3
TAP	43	0	1
TAP	43	0	4
TAP	43	96	3
TAP	43	96	6
TAP	43	192	0
TAP	43	192	5
TAP	43	288	2
TAP	43	288	7
STR	44	0	0
SI_	44	0	0	96	48	4
STR	44	0	1
SI_	44	0	1	96	48	3
STR	44	192	6
SI_	44	192	6	96	48	4
STR	44	192	7
SI_	44	192	7	96	48	3
TAP	45	0	0
TAP	45	0	7
STR	45	96	1
SI_	45	96	1	96	48	5
STR	45	96	6
SI_	45	96	6	96	48	2
STR	46	0	1
SCR	46	0	1	96	48	4
TAP	46	96	7
STR	46	192	6
SCL	46	192	6	96	48	3
TAP	46	288	0
STR	47	0	0
SI_	47	0	0	96	48	4
STR	47	96	7
SI_	47	96	7	96	48	3
TAP	47	192	0
TAP	47	288	1
TAP	47	288	6
STR	48	0	5
SCR	48	0	5	96	48	0
TAP	48	96	3
STR	48	192	2
SCL	48	192	2	96	48	7
TAP	48	288	4
STR	49	0	4
SUL	49	0	4	96	120	3
TAP	49	288	1
TAP	49	288	6
TAP	50	0	7
STR	50	96	7
SI_	50	96	7	96	96	4
TAP	51	0	3
TAP	51	0	6
TAP	51	96	1
TAP	51	96	4
TAP	51	192	2
TAP	51	192	7
TAP	51	288	0
TAP	51	288	5
STR	52	0	6
SI_	52	0	6	96	48	4
STR	52	0	7
SI_	52	0	7	96	48	3
STR	52	192	0
SI_	52	192	0	96	48	4
STR	52	192	1
SI_	52	192	1	96	48	3
TAP	53	0	0
TAP	53	0	7
STR	53	96	0
SCR	53	96	0	96	48	3
STR	53	96	7
SCL	53	96	7	96	48	4
TAP	54	0	0
TAP	54	0	1
TAP	54	96	2
TAP	54	96	7
TAP	54	192	6
TAP	54	192	7
TAP	54	288	0
TAP	54	288	5
TAP	55	0	0
TAP	55	0	1
TAP	55	96	2
TAP	55	96	7
TAP	55	192	6
TAP	55	240	7
TAP	55	288	6
TAP	56	0	6
TAP	56	0	7
TAP	56	96	2
TAP	56	96	4
TAP	56	192	0
TAP	56	192	1
TAP	56	288	3
TAP	56	288	5
TAP	57	0	6
TAP	57	0	7
TAP	57	96	2
TAP	57	96	4
TAP	57	192	1
TAP	57	240	0
TAP	57	288	1
TAP	58	0	2
TAP	58	0	3
TAP	58	96	1
TAP	58	96	7
TAP	58	192	4
TAP	58	192	5
TAP	58	288	0
TAP	58	288	6
TAP	59	0	2
TAP	59	0	3
TAP	59	96	1
TAP	59	96	7
TAP	59	192	5
TAP	59	240	4
TAP	59	288	5
HLD	60	0	6	96
TAP	60	96	7
HLD	60	192	1	96
TAP	60	288	0
TAP	61	0	7
TAP	61	48	0
TAP	61	96	6
TAP	61	144	1
BRK	61	240	7
BRK	61	288	7
TAP	62	0	0
TAP	62	96	6
TAP	62	144	4
TAP	62	144	5
TAP	62	240	4
TAP	62	240	5
HLD	62	336	3	96
TAP	63	48	2
TAP	63	96	2
TAP	63	96	3
TAP	63	192	1
TAP	63	192	6
BRK	63	288	0
HLD	64	0	7	96
TAP	64	96	6
HLD	64	192	0	96
TAP	64	288	1
HLD	65	0	4	96
TAP	65	96	6
HLD	65	192	3	96
TAP	65	288	1
TAP	66	0	6
TAP	66	48	7
TAP	66	96	0
TAP	66	96	6
TAP	66	192	1
TAP	66	240	0
TAP	66	288	1
TAP	66	288	7
TAP	67	0	6
TAP	67	48	1
TAP	67	96	5
TAP	67	144	2
TAP	67	192	3
TAP	67	192	4
TAP	67	288	1
TAP	67	288	6
TAP	68	0	6
TAP	68	0	7
TAP	68	72	6
TAP	68	72	7
TAP	68	144	0
TAP	68	144	5
TAP	68	240	3
TAP	68	288	4
TAP	69	0	0
TAP	69	0	1
TAP	69	72	0
TAP	69	72	1
TAP	69	144	2
TAP	69	144	7
TAP	69	240	4
TAP	69	288	3
TAP	70	0	3
TAP	70	0	7
TAP	70	96	2
TAP	70	96	6
TAP	70	192	1
TAP	70	192	5
TAP	70	288	0
TAP	70	288	4
STR	71	0	3
SCR	71	0	3	96	96	6
STR	71	0	7
SCR	71	0	7	96	96	2
TAP	72	0	5
TAP	72	48	4
TAP	72	96	6
TAP	72	144	3
TAP	72	192	5
STR	72	288	4
SF_	72	288	4	96	144	0
TAP	72	288	5
TAP	73	288	1
TAP	73	288	6
STR	74	0	6
SCL	74	0	6	96	48	3
TAP	74	96	0
STR	74	192	1
SCR	74	192	1	96	48	4
TAP	74	288	7
STR	75	0	7
SI_	75	0	7	96	48	3
STR	75	96	0
SI_	75	96	0	96	48	4
TAP	75	192	7
TAP	75	288	1
TAP	75	288	6
STR	76	0	2
SCL	76	0	2	96	48	7
TAP	76	96	4
STR	76	192	5
SCR	76	192	5	96	48	0
TAP	76	288	3
STR	77	0	3
SUR	77	0	3	96	120	4
TAP	77	288	1
TAP	77	288	6
TAP	78	0	2
TAP	78	48	4
TAP	78	96	3
TAP	78	144	5
TAP	78	192	3
TAP	78	240	4
TAP	78	288	2
TAP	78	288	5
HLD	79	0	1	192
HLD	79	0	6	192
TAP	79	288	1
TAP	79	288	6
STR	80	0	2
SI_	80	0	2	96	48	0
STR	80	0	3
SI_	80	0	3	96	48	7
STR	80	192	4
SI_	80	192	4	96	48	0
STR	80	192	5
SI_	80	192	5	96	48	7
TAP	81	0	3
TAP	81	0	4
STR	81	96	1
SLR	81	96	1	96	96	7
STR	81	96	6
SLL	81	96	6	96	96	0
STR	82	0	1
SCR	82	0	1	96	48	4
TAP	82	96	7
STR	82	192	6
SCL	82	192	6	96	48	3
TAP	82	288	0
STR	83	0	0
SI_	83	0	0	96	48	4
STR	83	96	7
SI_	83	96	7	96	48	3
TAP	83	192	0
TAP	83	288	1
TAP	83	288	6
STR	84	0	5
SCR	84	0	5	96	48	0
TAP	84	96	3
STR	84	192	2
SCL	84	192	2	96	48	7
TAP	84	288	4
STR	85	0	4
SUL	85	0	4	96	120	3
TAP	85	288	1
TAP	85	288	6
TAP	86	0	5
STR	86	96	5
SI_	86	96	5	96	96	2
TAP	87	0	3
TAP	87	0	6
TAP	87	96	1
TAP	87	96	4
TAP	87	192	2
TAP	87	192	7
TAP	87	288	0
TAP	87	288	5
STR	88	0	4
SI_	88	0	4	96	48	0
STR	88	0	5
SI_	88	0	5	96	48	7
STR	88	192	2
SI_	88	192	2	96	48	0
STR	88	192	3
SI_	88	192	3	96	48	7
TAP	89	0	3
TAP	89	0	4
STR	89	96	3
SCL	89	96	3	96	48	0
STR	89	96	4
SCR	89	96	4	96	48	7
TAP	90	0	2
TAP	90	0	3
TAP	90	96	1
TAP	90	96	4
TAP	90	192	4
TAP	90	192	5
TAP	90	288	3
TAP	90	288	6
TAP	91	0	2
TAP	91	0	3
TAP	91	96	1
TAP	91	96	4
TAP	91	192	6
TAP	91	240	7
TAP	91	288	6
TAP	92	0	4
TAP	92	0	5
TAP	92	96	1
TAP	92	96	7
TAP	92	192	2
TAP	92	192	3
TAP	92	288	0
TAP	92	288	6
TAP	93	0	4
TAP	93	0	5
TAP	93	96	1
TAP	93	96	7
TAP	93	192	2
TAP	93	240	3
TAP	93	288	2
TAP	94	0	0
TAP	94	0	1
TAP	94	96	2
TAP	94	96	7
TAP	94	192	6
TAP	94	192	7
TAP	94	288	0
TAP	94	288	5
TAP	95	0	0
TAP	95	0	1
TAP	95	96	2
TAP	95	96	7
TAP	95	192	5
TAP	95	240	4
TAP	95	288	5
HLD	96	0	1	96
TAP	96	96	0
HLD	96	192	6	96
TAP	96	288	7
TAP	97	0	0
TAP	97	48	7
TAP	97	96	1
TAP	97	144	6
BRK	97	240	0
BRK	97	288	0
TAP	98	0	7
TAP	98	96	1
TAP	98	144	2
TAP	98	144	3
TAP	98	240	2
TAP	98	240	3
HLD	98	336	4	96
TAP	99	48	5
TAP	99	96	4
TAP	99	96	5
TAP	99	192	1
TAP	99	192	6
TAP	99	240	7
TAP	99	288	7
TAP	100	0	0
TAP	100	96	6
TAP	100	144	4
TAP	100	144	5
TAP	100	240	4
TAP	100	240	5
HLD	100	336	3	96
TAP	101	48	2
TAP	101	96	2
TAP	101	96	3
BRK	101	192	1
BRK	101	192	6
BRK	102	240	0
TAP	102	336	0
TAP	102	336	7
TAP	103	48	3
TAP	103	96	4
BRK	103	192	1
BRK	103	192	6

T_REC_TAP	474
T_REC_BRK	15
T_REC_XTP	0
T_REC_HLD	28
T_REC_XHO	0
T_REC_STR	65
T_REC_BST	0
T_REC_XST	0
T_REC_TTP	0
T_REC_THO	0
T_REC_SLD	66
T_REC_ALL	648
T_NUM_TAP	539
T_NUM_BRK	15
T_NUM_HLD	28
T_NUM_SLD	66
T_NUM_ALL	648
T_JUDGE_TAP	554
T_JUDGE_HLD	60
T_JUDGE_SLD	66
T_JUDGE_ALL	680
TTM_EACHPAIRS	161
TTM_SCR_TAP	269500
TTM_SCR_BRK	39000
TTM_SCR_HLD	28000
TTM_SCR_SLD	99000
TTM_SCR_ALL	435500
TTM_SCR_S	421000
TTM_SCR_SS	434000
TTM_RAT_ACV	10034

