VERSION	0.00.00	1.03.00
FES_MODE	0
BPM_DEF	185.000	185.000	185.000	185.000
MET_DEF	4	4
RESOLUTION	384
CLK_DEF	384
COMPATIBLE_CODE	MA2

BPM	0	0	185.000
MET	0	0	4	4

TAP	3	0	3
TAP	3	96	3
TAP	3	192	4
TAP	3	288	4
TAP	4	0	2
TAP	4	96	3
TAP	4	192	1
TAP	4	192	4
TAP	5	0	4
TAP	5	96	4
TAP	5	192	3
TAP	5	288	3
TAP	6	0	5
TAP	6	96	4
TAP	6	192	3
TAP	6	192	6
TAP	7	0	1
TAP	7	96	1
TAP	7	192	0
TAP	7	288	0
TAP	8	0	7
TAP	8	96	0
TAP	8	192	1
TAP	8	192	6
TAP	9	0	6
TAP	9	96	6
TAP	9	192	7
TAP	9	288	7
TAP	10	0	0
TAP	10	96	7
TAP	10	192	1
TAP	10	192	6
TAP	11	0	2
TAP	11	0	3
TAP	11	96	2
TAP	11	96	3
TAP	11	192	4
TAP	11	192	5
TAP	11	288	4
TAP	11	288	5
TAP	12	0	3
TAP	12	0	4
TAP	12	96	2
TAP	12	96	5
BRK	12	192	1
BRK	12	192	6
TAP	13	0	7
TAP	13	96	7
TAP	13	192	7
TAP	13	288	0
TAP	13	288	6
TAP	14	0	5
TAP	14	96	5
TAP	14	192	5
TAP	14	288	4
TAP	14	288	6
TAP	15	0	3
TAP	15	96	3
TAP	15	192	3
TAP	15	288	2
TAP	15	288	4
TAP	16	0	1
TAP	16	96	1
TAP	16	192	1
TAP	16	288	0
TAP	16	288	2
TAP	17	0	7
TAP	17	96	6
TAP	17	192	5
TAP	17	288	4
HLD	18	0	3	480
HLD	18	192	4	288
TAP	19	288	1
TAP	19	288	6
TAP	20	0	0
TAP	20	96	1
TAP	20	192	2
TAP	20	288	3
TAP	21	0	4
STR	21	96	5
SI_	21	96	5	96	96	0
TAP	22	0	1
TAP	22	96	3
TAP	22	192	6
TAP	22	288	4
TAP	23	0	3
TAP	23	96	4
TAP	23	192	1
TAP	23	192	6
TAP	24	0	7
TAP	24	96	6
TAP	24	192	5
TAP	24	288	4
TAP	25	0	2
TAP	25	0	3
TAP	25	96	0
TAP	25	96	1
TAP	25	192	6
TAP	25	192	7
TAP	26	0	1
TAP	26	96	2
TAP	26	96	7
TAP	26	192	6
TAP	26	288	0
TAP	26	288	5
TAP	27	0	1
TAP	27	0	6
TAP	27	96	1
TAP	27	96	6
TAP	27	288	0
TAP	27	288	7
TAP	28	0	2
TAP	28	0	3
TAP	28	96	2
TAP	28	96	3
TAP	28	192	3
TAP	28	192	4
TAP	28	288	3
TAP	28	288	4
TAP	29	0	2
TAP	29	0	3
TAP	29	96	3
TAP	29	96	4
TAP	29	192	2
TAP	29	192	3
TAP	30	0	4
TAP	30	0	5
TAP	30	96	4
TAP	30	96	5
TAP	30	192	3
TAP	30	192	4
TAP	30	288	3
TAP	30	288	4
TAP	31	0	4
TAP	31	0	5
TAP	31	96	3
TAP	31	96	4
TAP	31	192	4
TAP	31	192	5
HLD	32	0	2	192
HLD	32	0	3	192
TAP	32	288	3
TAP	32	288	4
HLD	33	0	4	192
HLD	33	0	5	192
TAP	33	288	3
TAP	33	288	4
HLD	34	0	2	192
HLD	34	192	3	192
HLD	35	0	4	192
TAP	35	192	5
TAP	36	0	0
TAP	36	96	1
TAP	36	192	2
TAP	36	288	3
TAP	37	0	4
TAP	37	96	5
TAP	37	192	6
BRK	37	288	0
BRK	37	288	7
TAP	38	0	0
TAP	38	0	1
TAP	38	96	0
TAP	38	96	1
TAP	38	192	6
TAP	38	192	7
TAP	38	288	6
TAP	38	288	7
TAP	39	0	0
TAP	39	0	1
TAP	39	96	6
TAP	39	96	7
TAP	39	192	0
TAP	39	192	5
TAP	40	0	1
TAP	40	96	2
TAP	40	192	3
TAP	40	288	4
TAP	41	0	5
STR	41	96	6
SUL	41	96	6	96	144	1
TAP	42	0	0
TAP	42	96	0
TAP	42	192	7
TAP	42	288	7
TAP	43	0	0
TAP	43	96	7
TAP	43	192	1
TAP	43	192	6
TAP	44	0	3
TAP	44	0	4
TAP	44	96	1
TAP	44	192	3
TAP	44	192	4
TAP	44	288	6
TAP	45	0	0
TAP	45	0	7
TAP	45	96	1
TAP	45	96	6
TAP	45	192	2
TAP	45	192	5
TAP	46	0	6
TAP	46	0	7
TAP	46	96	6
TAP	46	96	7
TAP	46	192	0
TAP	46	192	1
TAP	46	288	0
TAP	46	288	1
TAP	47	0	6
TAP	47	0	7
TAP	47	96	0
TAP	47	96	1
TAP	47	192	2
TAP	47	192	7
TAP	48	0	6
TAP	48	96	5
TAP	48	192	4
TAP	48	288	3
TAP	49	0	2
STR	49	96	1
SUR	49	96	1	96	144	6
TAP	50	0	7
TAP	50	96	7
TAP	50	192	0
TAP	50	288	0
TAP	51	0	7
TAP	51	96	0
TAP	51	192	7
TAP	51	288	1
TAP	51	288	6
TAP	52	0	2
TAP	52	96	2
TAP	52	96	3
TAP	52	192	5
TAP	52	288	4
TAP	52	288	5
TAP	53	0	3
STR	53	96	3
SI_	53	96	3	96	96	0
STR	53	96	4
SI_	53	96	4	96	96	7
TAP	54	0	6
TAP	54	96	6
TAP	54	192	3
TAP	54	288	3
TAP	55	0	5
TAP	55	96	4
TAP	55	192	3
TAP	55	192	6
TAP	56	0	1
TAP	56	96	1
TAP	56	192	4
TAP	56	288	4
TAP	57	0	2
TAP	57	96	3
TAP	57	192	1
TAP	57	192	4
TAP	58	0	1
TAP	58	96	1
TAP	58	192	7
TAP	58	288	7
TAP	59	0	0
TAP	59	96	7
TAP	59	192	1
TAP	59	192	6
TAP	60	0	6
TAP	60	96	6
TAP	60	192	0
TAP	60	288	0
TAP	61	0	7
TAP	61	96	0
TAP	61	192	1
TAP	61	192	6
TAP	62	0	4
TAP	62	0	5
TAP	62	96	4
TAP	62	96	5
TAP	62	192	2
TAP	62	192	3
TAP	62	288	2
TAP	62	288	3
TAP	63	0	3
TAP	63	0	4
TAP	63	96	2
TAP	63	96	5
BRK	63	192	1
BRK	63	192	6
TAP	64	0	6
TAP	64	0	7
TAP	64	96	6
TAP	64	96	7
TAP	64	192	0
TAP	64	192	7
TAP	64	288	0
TAP	64	288	7
TAP	65	0	6
TAP	65	0	7
TAP	65	96	0
TAP	65	96	7
TAP	65	192	6
TAP	65	192	7
TAP	66	0	0
TAP	66	0	1
TAP	66	96	0
TAP	66	96	1
TAP	66	192	0
TAP	66	192	7
TAP	66	288	0
TAP	66	288	7
TAP	67	0	0
TAP	67	0	1
TAP	67	96	0
TAP	67	96	7
TAP	67	192	0
TAP	67	192	1
HLD	68	0	6	192
HLD	68	0	7	192
TAP	68	288	0
TAP	68	288	7
HLD	69	0	0	192
HLD	69	0	1	192
TAP	69	288	0
TAP	69	288	7
HLD	70	0	6	192
HLD	70	192	7	192
HLD	71	0	0	192
TAP	71	192	1
TAP	72	0	2
TAP	72	0	3
TAP	72	96	4
TAP	72	96	5
TAP	72	192	3
TAP	72	192	4
STR	72	288	3
SSR	72	288	3	96	288	7
TAP	74	0	6
TAP	74	0	7
TAP	74	96	6
TAP	74	96	7
TAP	74	192	0
TAP	74	192	1
TAP	74	288	0
TAP	74	288	1
TAP	75	0	6
TAP	75	0	7
TAP	75	96	0
TAP	75	96	1
TAP	75	192	2
TAP	75	192	7
TAP	76	0	5
TAP	76	96	6
TAP	76	192	7
TAP	76	288	0
TAP	77	0	1
STR	77	96	2
SUL	77	96	2	96	144	5
TAP	78	0	7
TAP	78	96	7
TAP	78	192	0
TAP	78	288	0
TAP	79	0	7
TAP	79	96	0
TAP	79	192	1
TAP	79	192	6
TAP	80	0	3
TAP	80	0	4
TAP	80	96	6
TAP	80	192	3
TAP	80	192	4
TAP	80	288	1
TAP	81	0	0
TAP	81	0	7
TAP	81	96	1
TAP	81	96	6
TAP	81	192	2
TAP	81	192	5
TAP	82	0	0
TAP	82	0	1
TAP	82	96	0
TAP	82	96	1
TAP	82	192	6
TAP	82	192	7
TAP	82	288	6
TAP	82	288	7
TAP	83	0	0
TAP	83	0	1
TAP	83	96	6
TAP	83	96	7
TAP	83	192	0
TAP	83	192	5
TAP	84	0	2
TAP	84	96	1
TAP	84	192	0
TAP	84	288	7
TAP	85	0	6
STR	85	96	5
SUR	85	96	5	96	144	2
TAP	86	0	0
TAP	86	96	0
TAP	86	192	7
TAP	86	288	7
TAP	87	0	0
TAP	87	96	7
TAP	87	192	0
TAP	87	288	1
TAP	87	288	6
TAP	88	0	5
TAP	88	96	4
TAP	88	96	6
TAP	88	192	2
TAP	88	288	1
TAP	88	288	3
TAP	89	0	0
STR	89	96	0
SCR	89	96	0	96	96	2
STR	89	96	7
SCL	89	96	7	96	96	5
TAP	90	0	0
TAP	90	96	0
TAP	90	192	5
TAP	90	288	5
TAP	91	0	1
TAP	91	96	0
TAP	91	192	2
TAP	91	192	7
TAP	92	0	7
TAP	92	96	7
TAP	92	192	2
TAP	92	288	2
TAP	93	0	6
TAP	93	96	7
TAP	93	192	0
TAP	93	192	5
TAP	94	0	1
TAP	94	96	1
TAP	94	192	3
TAP	94	288	3
TAP	95	0	1
TAP	95	96	3
TAP	95	192	0
TAP	95	192	4
TAP	96	0	6
TAP	96	96	6
TAP	96	192	4
TAP	96	288	4
TAP	97	0	6
TAP	97	96	4
TAP	97	192	3
TAP	97	192	7
TAP	98	0	1
TAP	98	0	3
TAP	98	96	1
TAP	98	96	3
TAP	98	192	4
TAP	98	192	6
TAP	98	288	4
TAP	98	288	6
TAP	99	0	2
TAP	99	0	5
TAP	99	96	1
TAP	99	96	6
BRK	99	192	0
BRK	99	192	7
TAP	100	0	4
TAP	100	0	6
TAP	100	96	4
TAP	100	96	6
TAP	100	192	1
TAP	100	192	3
TAP	100	288	1
TAP	100	288	3
TAP	101	0	2
TAP	101	0	5
TAP	101	96	1
TAP	101	96	6
BRK	101	192	0
BRK	101	192	7
HLD	102	336	2	96
HLD	102	336	5	96
TAP	103	96	2
TAP	103	96	5
BRK	103	192	0
BRK	103	192	7

T_REC_TAP	434
T_REC_BRK	12
T_REC_XTP	0
T_REC_HLD	18
T_REC_XHO	0
T_REC_STR	10
T_REC_BST	0
T_REC_XST	0
T_REC_TTP	0
T_REC_THO	0
T_REC_SLD	10
T_REC_ALL	484
T_NUM_TAP	444
T_NUM_BRK	12
T_NUM_HLD	18
T_NUM_SLD	10
T_NUM_ALL	484
T_JUDGE_TAP	456
T_JUDGE_HLD	76
T_JUDGE_SLD	10
T_JUDGE_ALL	542
TTM_EACHPAIRS	145
TTM_SCR_TAP	222000
TTM_SCR_BRK	31200
TTM_SCR_HLD	18000
TTM_SCR_SLD	15000
TTM_SCR_ALL	286200
TTM_SCR_S	276450
TTM_SCR_SS	285000
TTM_RAT_ACV	10042

