VERSION	0.00.00	1.03.00
FES_MODE	0
BPM_DEF	185.000	185.000	185.000	185.000
MET_DEF	4	4
RESOLUTION	384
CLK_DEF	384
COMPATIBLE_CODE	MA2

BPM	0	0	185.000
MET	0	0	4	4

TAP	3	0	3
TAP	3	96	3
TAP	3	192	3
TAP	4	0	4
TAP	4	96	4
TAP	4	192	4
TAP	4	192	5
TAP	5	0	5
TAP	5	96	4
TAP	5	192	5
TAP	6	0	2
TAP	6	96	3
TAP	6	192	2
TAP	7	0	4
TAP	7	96	4
TAP	7	192	4
TAP	8	0	3
TAP	8	96	3
TAP	8	192	2
TAP	8	192	3
TAP	9	0	2
TAP	9	96	3
TAP	9	192	2
TAP	10	0	5
TAP	10	96	4
TAP	10	192	5
TAP	11	0	6
TAP	11	0	7
TAP	11	192	6
TAP	11	192	7
TAP	12	0	0
TAP	12	96	0
BRK	12	192	0
STR	13	0	0
SI_	13	0	0	96	288	3
STR	15	0	7
SI_	15	0	7	96	288	4
HLD	17	0	0	192
HLD	17	0	7	192
STR	18	0	0
SI_	18	0	0	96	288	3
STR	18	0	7
SI_	18	0	7	96	288	4
TAP	20	0	4
TAP	20	96	4
TAP	20	192	4
TAP	21	0	5
TAP	21	96	5
TAP	21	192	4
TAP	21	192	5
TAP	22	0	6
TAP	22	96	6
TAP	22	192	7
TAP	22	288	7
TAP	23	0	0
TAP	23	96	0
TAP	23	192	0
TAP	23	192	7
TAP	24	0	0
TAP	24	96	0
TAP	24	192	0
TAP	25	0	1
TAP	25	96	1
TAP	25	192	0
TAP	25	192	1
TAP	26	0	2
TAP	26	96	2
TAP	26	192	3
TAP	26	288	3
TAP	27	0	4
TAP	27	96	4
TAP	27	192	3
TAP	27	192	4
TAP	28	0	5
TAP	28	96	4
TAP	28	192	5
TAP	29	0	2
TAP	29	96	3
TAP	29	192	2
STR	30	0	1
SI_	30	0	1	96	288	4
TAP	32	0	4
TAP	32	0	5
TAP	32	192	4
TAP	32	192	5
TAP	33	0	2
TAP	33	0	3
TAP	33	192	2
TAP	33	192	3
TAP	34	0	4
TAP	34	96	4
TAP	34	192	5
TAP	34	288	5
HLD	35	0	6	192
TAP	36	0	6
TAP	36	0	7
TAP	36	192	0
TAP	36	192	1
TAP	37	0	7
TAP	37	96	0
TAP	37	192	1
TAP	37	192	6
TAP	38	0	7
TAP	38	96	7
TAP	38	192	7
TAP	39	0	6
TAP	39	96	6
TAP	39	192	6
TAP	39	192	7
TAP	40	0	5
TAP	40	96	5
TAP	40	192	4
TAP	40	288	4
TAP	41	0	3
TAP	41	96	4
TAP	41	192	3
TAP	42	0	3
TAP	42	96	3
TAP	42	192	2
TAP	42	192	3
TAP	43	0	2
TAP	43	96	2
TAP	43	192	2
TAP	43	192	3
TAP	44	0	1
TAP	44	96	1
TAP	44	192	0
TAP	44	192	1
TAP	45	0	0
TAP	45	96	7
TAP	45	192	0
TAP	46	0	0
TAP	46	96	0
TAP	46	192	0
TAP	47	0	1
TAP	47	96	1
TAP	47	192	0
TAP	47	192	1
TAP	48	0	2
TAP	48	96	2
TAP	48	192	3
TAP	48	288	3
TAP	49	0	4
TAP	49	96	3
TAP	49	192	4
TAP	50	0	5
TAP	50	96	4
TAP	50	192	5
TAP	51	0	2
TAP	51	96	3
TAP	51	192	2
TAP	52	0	3
TAP	52	96	3
TAP	52	192	4
TAP	52	288	4
TAP	53	0	3
TAP	53	96	4
TAP	53	192	2
TAP	53	192	5
TAP	54	0	4
TAP	54	96	4
TAP	54	192	4
TAP	55	0	3
TAP	55	96	3
TAP	55	192	2
TAP	55	192	3
TAP	56	0	2
TAP	56	96	3
TAP	56	192	2
TAP	57	0	5
TAP	57	96	4
TAP	57	192	5
TAP	58	0	3
TAP	58	96	3
TAP	58	192	3
TAP	59	0	4
TAP	59	96	4
TAP	59	192	4
TAP	59	192	5
TAP	60	0	5
TAP	60	96	4
TAP	60	192	5
TAP	61	0	2
TAP	61	96	3
TAP	61	192	2
TAP	62	0	0
TAP	62	0	1
TAP	62	192	0
TAP	62	192	1
TAP	63	0	7
TAP	63	96	7
BRK	63	192	7
TAP	64	0	5
TAP	64	96	4
TAP	64	192	5
TAP	65	0	2
TAP	65	96	3
TAP	65	192	2
STR	66	0	1
SI_	66	0	1	96	288	4
TAP	68	0	4
TAP	68	0	5
TAP	68	192	4
TAP	68	192	5
TAP	69	0	2
TAP	69	0	3
TAP	69	192	2
TAP	69	192	3
TAP	70	0	4
TAP	70	96	4
TAP	70	192	5
TAP	70	288	5
HLD	71	0	6	192
TAP	72	0	6
TAP	72	0	7
TAP	72	192	0
TAP	72	192	1
TAP	73	0	7
TAP	73	96	0
TAP	73	192	1
TAP	73	192	6
TAP	74	0	0
TAP	74	96	0
TAP	74	192	0
TAP	75	0	1
TAP	75	96	1
TAP	75	192	0
TAP	75	192	1
TAP	76	0	2
TAP	76	96	2
TAP	76	192	3
TAP	76	288	3
TAP	77	0	4
TAP	77	96	3
TAP	77	192	4
TAP	78	0	4
TAP	78	96	4
TAP	78	192	4
TAP	78	192	5
TAP	79	0	5
TAP	79	96	5
TAP	79	192	4
TAP	79	192	5
TAP	80	0	6
TAP	80	96	6
TAP	80	192	6
TAP	80	192	7
TAP	81	0	7
TAP	81	96	0
TAP	81	192	7
TAP	82	0	7
TAP	82	96	7
TAP	82	192	7
TAP	83	0	6
TAP	83	96	6
TAP	83	192	6
TAP	83	192	7
TAP	84	0	5
TAP	84	96	5
TAP	84	192	4
TAP	84	288	4
TAP	85	0	3
TAP	85	96	4
TAP	85	192	3
TAP	86	0	2
TAP	86	96	3
TAP	86	192	2
TAP	87	0	5
TAP	87	96	4
TAP	87	192	5
TAP	88	0	4
TAP	88	96	4
TAP	88	192	3
TAP	88	288	3
TAP	89	0	4
TAP	89	96	3
TAP	89	192	2
TAP	89	192	5
TAP	90	0	2
TAP	90	96	2
TAP	90	192	2
TAP	90	192	3
TAP	91	0	5
TAP	91	96	5
TAP	91	192	4
TAP	91	192	5
TAP	92	0	2
TAP	92	96	2
TAP	92	192	2
TAP	92	192	3
TAP	93	0	5
TAP	93	96	4
TAP	93	192	5
TAP	94	0	6
TAP	94	96	7
TAP	94	192	6
TAP	95	0	1
TAP	95	96	0
TAP	95	192	1
TAP	96	0	6
TAP	96	0	7
TAP	96	192	6
TAP	96	192	7
TAP	97	0	0
TAP	97	96	7
TAP	97	192	0
TAP	98	0	0
TAP	98	0	1
TAP	98	192	0
TAP	98	192	1
TAP	99	0	7
TAP	99	96	7
BRK	99	192	0
BRK	99	192	7
TAP	100	0	6
TAP	100	0	7
TAP	100	192	6
TAP	100	192	7
TAP	101	0	0
TAP	101	96	0
BRK	101	192	0
BRK	101	192	7
TAP	103	0	0
TAP	103	96	7
BRK	103	192	0
BRK	103	192	7

T_REC_TAP	302
T_REC_BRK	8
T_REC_XTP	0
T_REC_HLD	4
T_REC_XHO	0
T_REC_STR	6
T_REC_BST	0
T_REC_XST	0
T_REC_TTP	0
T_REC_THO	0
T_REC_SLD	6
T_REC_ALL	326
T_NUM_TAP	308
T_NUM_BRK	8
T_NUM_HLD	4
T_NUM_SLD	6
T_NUM_ALL	326
T_JUDGE_TAP	316
T_JUDGE_HLD	16
T_JUDGE_SLD	6
T_JUDGE_ALL	338
TTM_EACHPAIRS	52
TTM_SCR_TAP	154000
TTM_SCR_BRK	20800
TTM_SCR_HLD	4000
TTM_SCR_SLD	9000
TTM_SCR_ALL	187800
TTM_SCR_S	181400
TTM_SCR_SS	187000
TTM_RAT_ACV	10042

