VERSION	0.00.00	1.03.00
FES_MODE	0
BPM_DEF	186.000	186.000	186.000	186.000
MET_DEF	4	4
RESOLUTION	384
CLK_DEF	384
COMPATIBLE_CODE	MA2

BPM	0	0	186.000
MET	0	0	4	4

TAP	1	0	3
TAP	1	0	4
TAP	1	48	3
TAP	1	48	4
TAP	3	0	2
TAP	3	0	3
TAP	3	96	1
TAP	3	192	4
TAP	3	192	5
STR	3	288	6
SSL	3	288	6	96	160	2
TAP	4	240	3
TAP	4	264	4
TAP	4	288	3
TAP	5	0	6
TAP	5	48	2
TAP	5	72	3
TAP	5	96	1
TAP	5	144	5
TAP	5	168	4
TAP	5	192	6
TAP	5	240	2
TAP	5	264	3
TAP	5	288	1
TAP	5	336	5
TAP	5	360	4
STR	6	0	6
SI_	6	0	6	96	48	3
TAP	6	48	6
STR	6	96	1
SI_	6	96	1	96	48	4
TAP	6	144	1
STR	6	192	5
SCR	6	192	5	96	48	0
TAP	6	240	5
TAP	6	288	2
TAP	7	0	1
TAP	7	48	5
TAP	7	72	4
TAP	7	96	6
TAP	7	144	2
TAP	7	168	3
TAP	7	192	1
TAP	7	240	5
TAP	7	264	4
TAP	7	288	6
TAP	7	336	2
TAP	7	360	3
TAP	8	0	1
TAP	8	48	0
TAP	8	96	7
TAP	8	144	6
STR	8	192	5
SUR	8	192	5	96	48	2
STR	8	192	6
SCR	8	192	6	96	48	1
TAP	8	288	5
TAP	8	288	6
TAP	9	0	1
TAP	9	48	5
TAP	9	72	4
TAP	9	96	7
TAP	9	144	2
TAP	9	168	3
TAP	9	192	0
TAP	9	240	5
TAP	9	264	4
TAP	9	288	7
TAP	9	336	2
TAP	9	360	3
STR	10	0	1
SI_	10	0	1	96	48	4
TAP	10	48	1
STR	10	96	6
SI_	10	96	6	96	48	3
TAP	10	144	6
STR	10	192	2
SCL	10	192	2	96	48	7
TAP	10	240	2
TAP	10	288	5
TAP	11	0	6
TAP	11	48	2
TAP	11	72	3
TAP	11	96	0
TAP	11	144	5
TAP	11	168	4
TAP	11	192	7
TAP	11	240	2
TAP	11	264	3
TAP	11	288	0
TAP	11	336	5
TAP	11	360	4
STR	12	0	7
SCL	12	0	7	96	48	4
SCR	12	0	7	96	48	2
STR	12	96	7
SF_	12	96	7	96	48	3
TAP	12	192	7
TAP	13	0	2
TAP	13	0	3
TAP	13	48	1
TAP	13	96	2
TAP	13	96	3
TAP	13	144	4
STR	13	192	2
SCL	13	192	2	96	48	7
TAP	13	192	3
TAP	13	288	6
TAP	14	0	4
TAP	14	0	5
TAP	14	48	6
TAP	14	96	4
TAP	14	96	5
TAP	14	144	3
TAP	14	192	4
STR	14	192	5
SCR	14	192	5	96	48	0
TAP	14	288	1
STR	15	0	1
SI_	15	0	1	96	48	5
TAP	15	48	7
TAP	15	96	7
STR	15	192	6
SI_	15	192	6	96	48	2
TAP	15	240	0
TAP	15	288	0
TAP	16	0	1
TAP	16	48	0
TAP	16	96	2
TAP	16	96	7
TAP	16	144	3
TAP	16	168	4
TAP	16	192	3
TAP	16	240	2
TAP	16	240	5
TAP	16	288	1
TAP	16	288	6
TAP	17	0	4
TAP	17	0	5
TAP	17	48	6
TAP	17	96	4
TAP	17	96	5
TAP	17	144	3
TAP	17	192	4
STR	17	192	5
SCR	17	192	5	96	48	0
TAP	17	288	1
TAP	18	0	2
TAP	18	0	3
TAP	18	48	1
TAP	18	96	2
TAP	18	96	3
TAP	18	144	4
STR	18	192	2
SCL	18	192	2	96	48	7
TAP	18	192	3
TAP	18	288	6
STR	19	0	6
SI_	19	0	6	96	48	2
TAP	19	48	0
TAP	19	96	0
STR	19	192	1
SI_	19	192	1	96	48	5
TAP	19	240	7
TAP	19	288	7
HLD	20	0	6	48
HLD	20	0	7	48
HLD	20	96	0	48
HLD	20	96	1	48
TAP	20	192	0
TAP	20	192	7
BRK	20	240	1
BRK	20	240	6
TAP	21	0	4
TAP	21	0	5
TAP	21	48	7
TAP	21	96	4
TAP	21	96	5
TAP	21	144	2
TAP	21	192	4
STR	21	192	5
SCR	21	192	5	96	48	0
TAP	21	288	1
TAP	22	0	2
TAP	22	0	3
TAP	22	48	0
TAP	22	96	2
TAP	22	96	3
TAP	22	144	5
STR	22	192	2
SCL	22	192	2	96	48	7
TAP	22	192	3
TAP	22	288	6
STR	23	0	6
SI_	23	0	6	96	48	2
TAP	23	48	7
TAP	23	96	7
STR	23	192	1
SI_	23	192	1	96	48	5
TAP	23	240	0
TAP	23	288	0
TAP	24	0	6
TAP	24	48	7
TAP	24	96	0
TAP	24	96	5
TAP	24	144	4
TAP	24	168	3
TAP	24	192	4
TAP	24	240	2
TAP	24	240	5
TAP	24	288	0
TAP	24	288	7
TAP	25	0	2
TAP	25	0	3
TAP	25	48	0
TAP	25	96	2
TAP	25	96	3
TAP	25	144	5
STR	25	192	2
SCL	25	192	2	96	48	7
TAP	25	192	3
TAP	25	288	6
TAP	26	0	4
TAP	26	0	5
TAP	26	48	7
TAP	26	96	4
TAP	26	96	5
TAP	26	144	2
TAP	26	192	4
STR	26	192	5
SCR	26	192	5	96	48	0
TAP	26	288	1
STR	27	0	1
SI_	27	0	1	96	48	5
TAP	27	48	0
TAP	27	96	0
STR	27	192	6
SI_	27	192	6	96	48	2
TAP	27	240	7
TAP	27	288	7
STR	28	0	0
SCR	28	0	0	96	48	3
STR	28	96	4
SCR	28	96	4	96	96	3
TAP	29	0	1
TAP	29	0	7
TAP	29	72	0
TAP	29	96	0
TAP	29	144	2
TAP	29	144	6
TAP	29	240	0
TAP	29	240	4
TAP	29	336	2
TAP	29	336	6
STR	30	0	2
SV_	30	0	2	96	48	4
STR	30	0	6
SCR	30	0	6	96	48	2
BRK	30	192	4
TAP	31	0	3
HLD	31	0	6	288
TAP	31	96	4
HLD	31	192	5	96
TAP	31	336	5
TAP	31	336	6
TAP	32	48	1
TAP	32	48	2
STR	32	96	1
SI_	32	96	1	96	48	6
STR	32	96	2
SI_	32	96	2	96	48	5
HLD	33	0	1	288
TAP	33	0	4
TAP	33	96	3
HLD	33	192	2	96
TAP	33	336	1
TAP	33	336	2
TAP	34	48	5
TAP	34	48	6
STR	34	96	5
SI_	34	96	5	96	48	2
STR	34	96	6
SI_	34	96	6	96	48	1
TAP	35	0	3
HLD	35	0	4	288
TAP	35	96	6
HLD	35	192	0	96
TAP	35	336	0
TAP	35	336	4
TAP	36	48	3
TAP	36	48	7
STR	36	96	3
SCL	36	96	3	96	48	0
STR	36	96	7
SCL	36	96	7	96	48	4
TAP	37	0	0
TAP	37	0	6
TAP	37	72	7
TAP	37	96	7
TAP	37	144	1
TAP	37	144	5
TAP	37	240	3
TAP	37	240	7
TAP	37	336	1
TAP	37	336	5
TAP	38	0	2
TAP	38	0	6
TAP	38	72	3
TAP	38	72	4
STR	38	144	1
SLR	38	144	1	96	96	7
STR	38	144	6
SLL	38	144	6	96	96	0
TAP	38	192	1
TAP	38	192	6
TAP	39	0	1
TAP	39	0	6
TAP	39	48	0
TAP	39	72	7
TAP	39	96	0
TAP	39	144	2
TAP	39	144	4
STR	39	240	3
SI_	39	240	3	96	48	0
STR	39	240	5
SI_	39	240	5	96	48	0
TAP	39	336	3
TAP	39	336	5
TAP	40	48	0
TAP	40	48	2
TAP	40	96	5
TAP	40	144	1
TAP	40	144	3
TAP	40	192	6
STR	40	240	2
SI_	40	240	2	96	48	7
STR	40	240	4
SI_	40	240	4	96	48	7
TAP	40	336	2
TAP	40	336	4
TAP	41	48	5
TAP	41	48	7
TAP	41	96	2
TAP	41	144	4
TAP	41	144	6
TAP	41	192	1
STR	41	240	3
SI_	41	240	3	96	48	0
STR	41	240	5
SI_	41	240	5	96	48	0
TAP	41	336	3
TAP	41	336	5
STR	42	48	6
SI_	42	48	6	96	48	2
TAP	42	96	6
STR	42	144	7
SI_	42	144	7	96	48	3
TAP	42	192	7
STR	42	240	0
SI_	42	240	0	96	48	4
TAP	42	288	0
HLD	42	336	1	96
STR	43	48	2
SCL	43	48	2	96	96	5
TAP	43	96	3
TAP	43	144	4
TAP	43	336	3
TAP	43	360	4
HLD	44	0	2	72
TAP	44	72	3
TAP	44	96	1
STR	44	144	0
SCR	44	144	0	96	48	3
TAP	44	240	7
TAP	44	256	6
TAP	44	272	5
TAP	44	288	4
HLD	45	0	5	72
TAP	45	72	4
TAP	45	96	6
STR	45	144	7
SCL	45	144	7	96	48	4
TAP	45	240	0
TAP	45	256	1
TAP	45	272	2
TAP	45	288	3
STR	46	0	2
SCR	46	0	2	96	48	5
TAP	46	96	2
STR	46	96	7
SI_	46	96	7	96	48	3
STR	46	192	0
SI_	46	192	0	96	48	4
TAP	46	192	7
TAP	46	288	0
STR	46	288	6
SI_	46	288	6	96	48	2
STR	47	0	3
SCL	47	0	3	96	144	4
TAP	47	0	6
TAP	47	48	3
TAP	47	288	4
TAP	47	288	6
TAP	47	336	1
TAP	47	336	3
TAP	48	48	5
TAP	48	48	7
TAP	48	96	2
TAP	48	144	4
TAP	48	144	6
TAP	48	192	1
STR	48	240	3
SI_	48	240	3	96	48	0
STR	48	240	5
SI_	48	240	5	96	48	0
TAP	48	336	3
TAP	48	336	5
TAP	49	48	0
TAP	49	48	2
TAP	49	96	5
TAP	49	144	1
TAP	49	144	3
TAP	49	192	6
STR	49	240	2
SI_	49	240	2	96	48	7
STR	49	240	4
SI_	49	240	4	96	48	7
TAP	49	336	2
TAP	49	336	4
STR	50	48	1
SI_	50	48	1	96	48	5
TAP	50	96	1
STR	50	144	0
SI_	50	144	0	96	48	4
TAP	50	192	0
STR	50	240	7
SI_	50	240	7	96	48	3
TAP	50	288	7
STR	50	336	6
SI_	50	336	6	96	48	2
TAP	51	0	6
STR	51	48	5
SI_	51	48	5	96	48	1
TAP	51	96	5
STR	51	144	4
SI_	51	144	4	96	48	0
TAP	51	192	4
TAP	51	240	3
TAP	51	288	3
TAP	51	336	2
STR	52	0	0
SI_	52	0	0	96	48	5
STR	52	0	2
SI_	52	0	2	96	48	5
TAP	52	96	0
TAP	52	96	2
STR	52	192	5
SI_	52	192	5	96	48	2
STR	52	192	7
SI_	52	192	7	96	48	2
TAP	52	288	5
TAP	52	288	7
STR	53	0	0
SI_	53	0	0	96	48	3
STR	53	0	7
SI_	53	0	7	96	48	4
TAP	53	96	0
TAP	53	96	7
TAP	53	240	3
TAP	53	264	4
TAP	53	288	3
TAP	53	336	2
TAP	53	336	5
STR	54	0	1
SI_	54	0	1	96	48	4
TAP	54	96	6
STR	54	144	5
SI_	54	144	5	96	48	0
TAP	54	240	2
TAP	54	288	1
TAP	54	336	0
TAP	54	336	7
TAP	55	48	2
TAP	55	48	3
TAP	55	96	1
TAP	55	96	4
TAP	55	144	0
TAP	55	144	5
STR	55	192	6
SI_	55	192	6	96	48	3
STR	55	192	7
SI_	55	192	7	96	48	2
TAP	55	288	6
TAP	55	288	7
TAP	56	0	1
STR	56	48	1
SI_	56	48	1	96	48	6
TAP	56	144	1
STR	56	144	5
SI_	56	144	5	96	48	2
STR	56	240	1
SI_	56	240	1	96	48	5
TAP	56	240	5
TAP	56	336	0
TAP	56	336	1
TAP	57	48	4
TAP	57	48	5
TAP	57	96	3
TAP	57	96	6
TAP	57	144	2
TAP	57	144	7
STR	57	192	0
SI_	57	192	0	96	48	5
STR	57	192	1
SI_	57	192	1	96	48	4
BRK	57	288	0
BRK	57	288	1
STR	58	0	6
SXL	58	0	6	96	288	3
STR	59	0	2
SXL	59	0	2	96	288	7
STR	60	0	6
SXL	60	0	6	96	288	1
HLD	61	0	2	96
TAP	61	96	3
STR	61	144	3
SF_	61	144	3	96	96	7
STR	62	0	1
SXR	62	0	1	96	288	4
STR	63	0	5
SXR	63	0	5	96	288	0
STR	64	0	1
SXR	64	0	1	96	288	6
HLD	65	0	5	96
TAP	65	96	4
STR	65	144	4
SF_	65	144	4	96	96	0
HLD	66	0	6	192
TAP	66	96	4
HLD	66	192	4	192
TAP	66	288	3
HLD	67	0	3	192
TAP	67	96	2
HLD	67	192	1	192
TAP	67	288	4
HLD	68	0	7	192
TAP	68	96	6
HLD	68	192	0	192
TAP	68	288	1
HLD	69	0	4	192
TAP	69	96	3
HLD	69	192	0	96
TAP	69	288	7
STR	70	0	0
SCL	70	0	0	96	192	5
STR	70	192	5
SCL	70	192	5	96	192	2
STR	71	0	2
SCL	71	0	2	96	192	7
STR	71	192	7
SCL	71	192	7	96	192	4
STR	72	0	4
SCL	72	0	4	96	96	1
STR	72	96	1
SCL	72	96	1	96	96	6
STR	72	192	6
SCL	72	192	6	96	96	3
STR	72	288	3
SCL	72	288	3	96	96	0
STR	73	0	0
SCL	73	0	0	96	96	4
STR	73	96	4
SCL	73	96	4	96	96	0
TAP	73	192	0
TAP	74	0	0
TAP	74	0	6
TAP	74	72	7
TAP	74	96	7
TAP	74	144	1
TAP	74	144	5
TAP	74	240	3
TAP	74	240	7
TAP	74	336	1
TAP	74	336	5
TAP	75	0	2
TAP	75	0	6
TAP	75	72	3
TAP	75	72	4
STR	75	144	1
SXL	75	144	1	96	96	0
STR	75	144	6
SXR	75	144	6	96	96	7
TAP	75	192	1
TAP	75	192	6
TAP	76	0	1
TAP	76	0	6
TAP	76	48	7
TAP	76	72	0
TAP	76	96	7
TAP	76	144	3
TAP	76	144	5
STR	76	240	2
SI_	76	240	2	96	48	7
STR	76	240	4
SI_	76	240	4	96	48	7
TAP	76	336	2
TAP	76	336	4
TAP	77	48	5
TAP	77	48	7
TAP	77	96	2
TAP	77	144	4
TAP	77	144	6
TAP	77	192	1
STR	77	240	3
SI_	77	240	3	96	48	0
STR	77	240	5
SI_	77	240	5	96	48	0
TAP	77	336	3
TAP	77	336	5
TAP	78	48	0
TAP	78	48	2
TAP	78	96	5
TAP	78	144	1
TAP	78	144	3
TAP	78	192	6
STR	78	240	2
SI_	78	240	2	96	48	7
STR	78	240	4
SI_	78	240	4	96	48	7
TAP	78	336	2
TAP	78	336	4
TAP	79	48	0
TAP	79	48	7
TAP	79	96	1
TAP	79	96	7
TAP	79	144	2
TAP	79	144	7
TAP	79	192	3
TAP	79	192	7
TAP	79	240	4
TAP	79	240	7
TAP	79	288	5
TAP	79	288	7
STR	79	336	6
SI_	79	336	6	96	48	2
STR	79	336	7
SI_	79	336	7	96	48	3
TAP	80	48	6
TAP	80	48	7
BRK	80	144	0
BRK	80	144	1
TAP	80	336	4
TAP	80	360	3
HLD	81	0	5	72
TAP	81	72	4
TAP	81	96	6
STR	81	144	7
SCL	81	144	7	96	48	4
TAP	81	240	0
TAP	81	256	1
TAP	81	272	2
BRK	81	288	3
HLD	82	0	2	72
TAP	82	72	3
TAP	82	96	1
STR	82	144	0
SCR	82	144	0	96	48	3
TAP	82	240	7
TAP	82	256	6
TAP	82	272	5
BRK	82	288	4
STR	83	0	5
SCL	83	0	5	96	48	2
STR	83	96	0
SI_	83	96	0	96	48	4
TAP	83	96	5
TAP	83	192	0
STR	83	192	7
SI_	83	192	7	96	48	3
STR	83	288	1
SI_	83	288	1	96	48	5
TAP	83	288	7
TAP	84	0	1
STR	84	0	4
SCR	84	0	4	96	144	3
TAP	84	48	4
TAP	84	240	0
TAP	84	288	7
TAP	84	336	1
TAP	84	336	6
TAP	85	48	0
TAP	85	48	2
TAP	85	96	5
TAP	85	144	1
TAP	85	144	3
TAP	85	192	6
STR	85	240	2
SI_	85	240	2	96	48	7
STR	85	240	4
SI_	85	240	4	96	48	7
TAP	85	336	2
TAP	85	336	4
TAP	86	48	5
TAP	86	48	7
TAP	86	96	2
TAP	86	144	4
TAP	86	144	6
TAP	86	192	1
STR	86	240	3
SI_	86	240	3	96	48	0
STR	86	240	5
SI_	86	240	5	96	48	0
TAP	86	336	3
TAP	86	336	5
TAP	87	48	1
TAP	87	48	7
TAP	87	96	1
TAP	87	96	6
TAP	87	144	1
TAP	87	144	5
TAP	87	192	1
TAP	87	192	4
TAP	87	240	1
TAP	87	240	3
TAP	87	288	1
TAP	87	288	2
STR	87	336	0
SI_	87	336	0	96	48	4
STR	87	336	1
SI_	87	336	1	96	48	5
TAP	88	48	0
TAP	88	48	1
TAP	88	144	7
TAP	88	192	6
TAP	88	240	5
TAP	88	288	4
TAP	88	336	3
STR	89	0	0
SI_	89	0	0	96	48	5
STR	89	0	2
SI_	89	0	2	96	48	5
BRK	89	96	0
BRK	89	96	2
STR	89	192	5
SI_	89	192	5	96	48	2
STR	89	192	7
SI_	89	192	7	96	48	2
BRK	89	288	5
BRK	89	288	7
STR	90	0	0
SI_	90	0	0	96	48	3
STR	90	0	7
SI_	90	0	7	96	48	4
BRK	90	96	0
BRK	90	96	7
TAP	90	240	3
TAP	90	264	4
TAP	90	288	3
TAP	90	336	2
TAP	90	336	5
STR	91	0	6
SI_	91	0	6	96	48	3
TAP	91	96	1
STR	91	144	2
SI_	91	144	2	96	48	7
TAP	91	240	5
TAP	91	288	6
TAP	91	336	0
TAP	91	336	7
TAP	92	48	4
TAP	92	48	5
TAP	92	96	3
TAP	92	96	6
TAP	92	144	2
TAP	92	144	7
STR	92	192	0
SI_	92	192	0	96	48	5
STR	92	192	1
SI_	92	192	1	96	48	4
TAP	92	288	0
TAP	92	288	1
TAP	93	0	6
STR	93	48	6
SI_	93	48	6	96	48	1
STR	93	144	2
SI_	93	144	2	96	48	5
TAP	93	144	6
TAP	93	240	2
STR	93	240	6
SI_	93	240	6	96	48	2
TAP	93	336	6
TAP	93	336	7
TAP	94	48	2
TAP	94	72	3
TAP	94	96	2
TAP	94	144	1
TAP	94	144	4
STR	94	192	6
SI_	94	192	6	96	48	3
STR	94	192	7
SI_	94	192	7	96	48	2
BRK	94	288	6
BRK	94	288	7
TAP	95	0	1
TAP	95	48	5
TAP	95	72	4
TAP	95	96	6
TAP	95	144	2
TAP	95	168	3
TAP	95	192	1
TAP	95	240	5
TAP	95	264	4
TAP	95	288	6
TAP	95	336	2
TAP	95	360	3
STR	96	0	1
SI_	96	0	1	96	48	4
TAP	96	48	1
STR	96	96	6
SI_	96	96	6	96	48	3
TAP	96	144	6
STR	96	192	2
SCL	96	192	2	96	48	7
TAP	96	240	2
TAP	96	288	5
TAP	97	0	6
TAP	97	48	2
TAP	97	72	3
TAP	97	96	1
TAP	97	144	5
TAP	97	168	4
TAP	97	192	6
TAP	97	240	2
TAP	97	264	3
TAP	97	288	1
TAP	97	336	5
TAP	97	360	4
TAP	98	0	6
TAP	98	48	7
TAP	98	96	0
TAP	98	144	1
STR	98	192	1
SCL	98	192	1	96	48	6
STR	98	192	2
SUL	98	192	2	96	48	5
TAP	98	288	1
TAP	98	288	2
TAP	99	0	6
TAP	99	48	2
TAP	99	72	3
TAP	99	96	0
TAP	99	144	5
TAP	99	168	4
TAP	99	192	7
TAP	99	240	2
TAP	99	264	3
TAP	99	288	0
TAP	99	336	5
TAP	99	360	4
STR	100	0	6
SI_	100	0	6	96	48	3
TAP	100	48	6
STR	100	96	1
SI_	100	96	1	96	48	4
TAP	100	144	1
STR	100	192	5
SCR	100	192	5	96	48	0
TAP	100	240	5
TAP	100	288	2
TAP	101	0	1
TAP	101	48	5
TAP	101	72	4
TAP	101	96	7
TAP	101	144	2
TAP	101	168	3
TAP	101	192	0
TAP	101	240	5
TAP	101	264	4
TAP	101	288	7
TAP	101	336	2
TAP	101	360	3
BST	102	0	0
SCL	102	0	0	96	48	5
SCR	102	0	0	96	48	3
BST	102	96	0
SF_	102	96	0	96	48	4
BRK	102	192	0

T_REC_TAP	548
T_REC_BRK	18
T_REC_XTP	0
T_REC_HLD	25
T_REC_XHO	0
T_REC_STR	145
T_REC_BST	2
T_REC_XST	0
T_REC_TTP	0
T_REC_THO	0
T_REC_SLD	149
T_REC_ALL	887
T_NUM_TAP	693
T_NUM_BRK	20
T_NUM_HLD	25
T_NUM_SLD	149
T_NUM_ALL	887
T_JUDGE_TAP	713
T_JUDGE_HLD	72
T_JUDGE_SLD	149
T_JUDGE_ALL	934
TTM_EACHPAIRS	183
TTM_SCR_TAP	346500
TTM_SCR_BRK	52000
TTM_SCR_HLD	25000
TTM_SCR_SLD	223500
TTM_SCR_ALL	647000
TTM_SCR_S	625650
TTM_SCR_SS	645000
TTM_RAT_ACV	10031

