VERSION	0.00.00	1.03.00
FES_MODE	0
BPM_DEF	186.000	186.000	186.000	186.000
MET_DEF	4	4
RESOLUTION	384
CLK_DEF	384
COMPATIBLE_CODE	MA2

BPM	0	0	186.000
MET	0	0	4	4

TAP	1	0	1
TAP	1	0	6
TAP	1	48	1
TAP	1	48	6
HLD	1	192	3	96
HLD	1	192	4	96
TAP	2	0	2
TAP	2	48	3
TAP	2	96	2
TAP	2	192	5
TAP	2	240	4
TAP	2	288	5
TAP	3	0	1
TAP	3	0	6
TAP	3	96	0
TAP	3	192	1
TAP	3	192	6
STR	3	288	7
SF_	3	288	7	96	192	3
BRK	4	288	1
BRK	4	288	6
TAP	5	0	2
TAP	5	48	3
TAP	5	96	2
TAP	5	192	1
TAP	5	288	2
TAP	5	288	3
TAP	6	0	5
TAP	6	48	4
TAP	6	96	5
TAP	6	192	6
TAP	6	288	4
TAP	6	288	5
TAP	7	0	1
TAP	7	48	0
TAP	7	96	1
TAP	7	192	6
TAP	7	240	7
TAP	7	288	6
TAP	8	0	2
TAP	8	48	3
TAP	8	96	2
TAP	8	192	0
TAP	8	192	7
BRK	8	288	1
BRK	8	288	6
TAP	9	0	5
TAP	9	48	4
TAP	9	96	6
TAP	9	192	4
TAP	9	192	5
TAP	9	288	1
TAP	9	288	6
TAP	10	0	2
TAP	10	48	3
TAP	10	96	1
TAP	10	192	2
TAP	10	192	3
TAP	10	288	1
TAP	10	288	6
TAP	11	0	6
TAP	11	48	7
TAP	11	96	5
TAP	11	192	1
TAP	11	240	0
TAP	11	288	2
TAP	12	0	6
TAP	12	0	7
TAP	12	96	0
TAP	12	96	1
BRK	12	192	2
BRK	12	192	5
STR	13	0	1
SCR	13	0	1	96	96	4
TAP	13	288	6
TAP	13	288	7
STR	14	0	6
SCL	14	0	6	96	96	3
TAP	14	288	0
TAP	14	288	1
TAP	15	0	2
TAP	15	96	1
TAP	15	96	3
TAP	15	192	5
TAP	15	288	4
TAP	15	288	6
STR	16	0	3
SXR	16	0	3	96	192	2
STR	16	0	4
SXL	16	0	4	96	192	5
STR	17	0	1
SCR	17	0	1	96	96	4
TAP	17	192	5
TAP	17	288	6
TAP	17	288	7
STR	18	0	6
SCL	18	0	6	96	96	3
TAP	18	192	2
TAP	18	288	0
TAP	18	288	1
TAP	19	0	1
TAP	19	96	0
TAP	19	96	2
TAP	19	192	6
TAP	19	288	5
TAP	19	288	7
TAP	20	0	3
TAP	20	0	4
TAP	20	96	2
TAP	20	96	5
TAP	20	192	1
TAP	20	192	6
BRK	20	240	1
BRK	20	240	6
TAP	21	0	2
TAP	21	48	3
TAP	21	96	1
TAP	21	192	2
TAP	21	192	3
TAP	21	288	1
TAP	21	288	4
TAP	22	0	5
TAP	22	48	4
TAP	22	96	6
TAP	22	192	4
TAP	22	192	5
TAP	22	288	3
TAP	22	288	6
TAP	23	0	0
TAP	23	0	7
TAP	23	96	1
TAP	23	96	6
TAP	23	192	2
TAP	23	192	5
TAP	23	288	3
TAP	23	288	4
STR	24	0	2
SUR	24	0	2	96	192	7
STR	24	0	5
SUL	24	0	5	96	192	0
TAP	25	0	1
TAP	25	96	0
TAP	25	96	2
TAP	25	192	5
TAP	25	240	4
TAP	25	288	5
TAP	26	0	6
TAP	26	96	5
TAP	26	96	7
TAP	26	192	2
TAP	26	240	3
TAP	26	288	2
STR	27	0	1
SI_	27	0	1	96	96	4
TAP	27	0	7
STR	27	192	6
SI_	27	192	6	96	96	3
STR	28	0	1
SI_	28	0	1	96	96	4
BRK	28	192	5
HLD	29	0	0	96
HLD	29	0	5	96
HLD	29	192	2	96
HLD	29	192	7	96
TAP	30	0	1
TAP	30	0	6
TAP	30	96	2
TAP	30	96	5
BRK	30	192	3
BRK	30	192	4
TAP	31	0	0
TAP	31	0	1
STR	31	96	0
SCL	31	96	0	96	192	4
TAP	31	96	1
TAP	32	0	3
TAP	32	96	2
TAP	32	192	1
TAP	32	192	4
TAP	33	0	6
TAP	33	0	7
TAP	33	96	6
STR	33	96	7
SCR	33	96	7	96	192	3
TAP	34	0	4
TAP	34	96	5
TAP	34	192	3
TAP	34	192	6
HLD	35	0	1	96
HLD	35	96	2	96
TAP	35	192	3
HLD	36	0	6	96
HLD	36	96	5	96
TAP	36	192	4
TAP	37	0	1
TAP	37	0	6
TAP	37	72	1
TAP	37	72	6
HLD	37	144	2	96
HLD	37	144	5	96
TAP	37	336	0
TAP	37	336	7
TAP	38	0	0
TAP	38	0	7
TAP	38	72	1
TAP	38	72	6
TAP	38	144	2
TAP	38	144	5
BRK	38	192	2
BRK	38	192	5
TAP	39	0	2
TAP	39	48	5
TAP	39	96	3
HLD	39	144	4	96
TAP	39	240	3
TAP	40	0	1
TAP	40	48	0
TAP	40	96	1
TAP	40	144	7
STR	40	192	1
SI_	40	192	1	96	48	4
TAP	41	0	6
TAP	41	48	7
TAP	41	96	6
TAP	41	144	0
STR	41	192	6
SI_	41	192	6	96	48	3
TAP	42	0	2
TAP	42	96	0
TAP	42	96	6
TAP	42	192	3
TAP	42	192	5
TAP	42	288	1
TAP	42	288	7
STR	43	0	4
SF_	43	0	4	96	96	0
HLD	44	0	1	72
HLD	44	72	2	72
TAP	44	144	3
TAP	44	240	0
TAP	44	240	7
TAP	44	288	0
TAP	44	288	7
HLD	45	0	6	72
HLD	45	72	5	72
TAP	45	144	4
TAP	45	240	0
TAP	45	240	7
TAP	45	288	0
TAP	45	288	7
TAP	46	0	3
HLD	46	0	5	96
TAP	46	96	7
HLD	46	192	2	96
TAP	46	192	4
TAP	46	288	0
STR	47	0	0
SCR	47	0	0	96	96	3
STR	47	0	7
SCL	47	0	7	96	96	4
TAP	47	48	0
TAP	47	48	7
TAP	47	288	1
TAP	47	288	6
TAP	48	0	2
TAP	48	48	3
TAP	48	96	2
TAP	48	144	4
STR	48	192	2
SI_	48	192	2	96	48	7
TAP	49	0	5
TAP	49	48	4
TAP	49	96	5
TAP	49	144	3
STR	49	192	5
SI_	49	192	5	96	48	0
HLD	50	0	1	96
TAP	50	96	0
HLD	50	192	5	96
TAP	50	288	4
TAP	51	0	1
TAP	51	0	7
TAP	51	96	3
TAP	51	96	5
TAP	51	192	0
TAP	51	192	6
TAP	51	288	2
TAP	51	288	4
TAP	52	0	0
TAP	52	0	7
STR	52	96	0
SXL	52	96	0	96	288	3
STR	52	96	7
SXR	52	96	7	96	288	4
TAP	53	288	0
TAP	53	288	7
HLD	54	0	0	96
STR	54	0	1
SI_	54	0	1	96	48	4
STR	54	192	6
SI_	54	192	6	96	48	3
HLD	54	192	7	96
STR	55	0	0
SF_	55	0	0	96	96	4
TAP	55	288	1
TAP	55	288	6
TAP	56	0	0
TAP	56	0	7
TAP	56	48	0
TAP	56	48	7
TAP	56	144	4
TAP	56	144	6
TAP	56	240	1
TAP	56	240	3
TAP	56	336	2
TAP	56	336	5
TAP	57	48	0
TAP	57	48	7
TAP	57	96	0
TAP	57	96	7
TAP	57	192	1
TAP	57	192	6
BRK	57	288	2
BRK	57	288	5
HLD	58	0	3	192
HLD	58	192	4	192
STR	59	0	5
SUR	59	0	5	96	192	2
HLD	60	0	4	192
HLD	60	192	3	192
STR	61	0	2
SUL	61	0	2	96	192	5
HLD	62	0	3	192
HLD	62	192	5	192
STR	63	0	7
SCR	63	0	7	96	192	3
HLD	64	0	4	192
HLD	64	192	2	192
STR	65	0	0
SCL	65	0	0	96	192	4
HLD	66	0	2	96
HLD	66	0	3	96
HLD	66	192	4	96
HLD	66	192	5	96
HLD	67	0	1	96
HLD	67	0	3	96
HLD	67	192	4	96
HLD	67	192	6	96
TAP	68	0	0
TAP	68	0	1
TAP	68	96	2
TAP	68	192	6
TAP	68	192	7
TAP	68	288	5
STR	69	0	0
SCR	69	0	0	96	96	3
STR	69	0	7
SCL	69	0	7	96	96	4
TAP	69	288	2
TAP	69	288	5
STR	70	0	1
SI_	70	0	1	96	48	4
STR	70	192	6
SI_	70	192	6	96	48	3
STR	71	0	0
SI_	71	0	0	96	48	4
STR	71	192	7
SI_	71	192	7	96	48	3
TAP	72	0	2
TAP	72	96	1
TAP	72	96	3
TAP	72	192	5
TAP	72	288	4
TAP	72	288	6
TAP	73	0	1
TAP	73	48	6
TAP	73	96	1
TAP	73	144	6
HLD	73	192	0	96
HLD	73	192	7	96
TAP	74	0	1
TAP	74	0	6
TAP	74	72	1
TAP	74	72	6
HLD	74	144	2	96
HLD	74	144	5	96
TAP	74	336	0
TAP	74	336	7
TAP	75	0	0
TAP	75	0	7
TAP	75	72	1
TAP	75	72	6
TAP	75	144	2
TAP	75	144	5
BRK	75	192	2
BRK	75	192	5
TAP	76	0	5
TAP	76	48	2
TAP	76	96	4
HLD	76	144	3	96
TAP	76	240	4
TAP	77	0	6
TAP	77	48	7
TAP	77	96	6
TAP	77	144	0
STR	77	192	6
SI_	77	192	6	96	48	3
TAP	77	288	7
TAP	78	0	1
TAP	78	48	0
TAP	78	96	1
TAP	78	144	7
STR	78	192	1
SI_	78	192	1	96	48	4
TAP	78	288	0
TAP	79	0	5
TAP	79	96	1
TAP	79	96	7
TAP	79	192	2
TAP	79	192	4
TAP	79	288	0
TAP	79	288	6
STR	80	0	3
SF_	80	0	3	96	96	7
HLD	81	0	7	72
HLD	81	72	6	72
TAP	81	144	5
TAP	81	240	3
TAP	81	240	4
TAP	81	288	3
TAP	81	288	4
HLD	82	0	0	72
HLD	82	72	1	72
TAP	82	144	2
TAP	82	240	3
TAP	82	240	4
TAP	82	288	3
TAP	82	288	4
HLD	83	0	3	96
TAP	83	0	5
TAP	83	96	0
TAP	83	192	2
HLD	83	192	4	96
TAP	83	288	7
STR	84	0	0
SCR	84	0	0	96	96	3
STR	84	0	7
SCL	84	0	7	96	96	4
TAP	84	48	0
TAP	84	48	7
TAP	84	288	1
TAP	84	288	6
TAP	85	0	5
TAP	85	48	4
TAP	85	96	5
TAP	85	144	3
STR	85	192	5
SI_	85	192	5	96	48	0
TAP	85	288	4
TAP	86	0	2
TAP	86	48	3
TAP	86	96	2
TAP	86	144	4
STR	86	192	2
SI_	86	192	2	96	48	7
TAP	86	288	3
HLD	87	0	6	96
TAP	87	96	7
HLD	87	192	1	96
TAP	87	288	0
TAP	88	0	4
TAP	88	0	5
TAP	88	96	2
TAP	88	96	3
TAP	88	192	0
TAP	88	192	6
TAP	88	288	1
TAP	88	288	7
TAP	89	0	6
TAP	89	48	7
TAP	89	96	5
TAP	89	192	1
TAP	89	240	0
TAP	89	288	2
STR	90	0	1
SI_	90	0	1	96	48	4
STR	90	0	6
SI_	90	0	6	96	48	3
TAP	90	288	0
TAP	90	288	7
STR	91	0	6
SCL	91	0	6	96	48	3
HLD	91	0	7	96
HLD	91	192	0	96
STR	91	192	1
SCR	91	192	1	96	48	4
STR	92	0	6
SI_	92	0	6	96	48	3
STR	92	96	1
SI_	92	96	1	96	48	4
STR	92	192	6
SI_	92	192	6	96	48	3
BRK	92	288	1
TAP	93	0	0
TAP	93	0	7
TAP	93	48	0
TAP	93	48	7
TAP	93	144	4
TAP	93	144	6
TAP	93	240	1
TAP	93	240	3
TAP	93	336	2
TAP	93	336	5
TAP	94	48	7
TAP	94	96	0
TAP	94	144	7
TAP	94	192	1
TAP	94	192	6
BRK	94	288	3
BRK	94	288	4
TAP	95	0	2
TAP	95	48	3
TAP	95	96	1
TAP	95	192	2
TAP	95	192	3
TAP	95	288	1
TAP	95	288	6
TAP	96	0	5
TAP	96	48	4
TAP	96	96	6
TAP	96	192	4
TAP	96	192	5
TAP	96	288	1
TAP	96	288	6
TAP	97	0	1
TAP	97	48	0
TAP	97	96	2
TAP	97	192	6
TAP	97	240	7
TAP	97	288	5
TAP	98	0	2
TAP	98	48	3
TAP	98	96	1
TAP	98	144	4
TAP	98	192	0
BRK	98	288	1
BRK	98	288	6
TAP	99	0	5
TAP	99	48	4
TAP	99	96	6
TAP	99	144	4
TAP	99	192	5
TAP	99	288	0
TAP	99	288	7
TAP	100	0	2
TAP	100	48	3
TAP	100	96	1
TAP	100	144	3
TAP	100	192	2
TAP	100	288	0
TAP	100	288	7
TAP	101	0	6
TAP	101	48	7
TAP	101	96	5
TAP	101	192	1
TAP	101	240	0
TAP	101	288	2
TAP	102	0	6
TAP	102	0	7
TAP	102	96	0
TAP	102	96	1
BRK	102	192	2
BRK	102	192	5

T_REC_TAP	395
T_REC_BRK	24
T_REC_XTP	0
T_REC_HLD	54
T_REC_XHO	0
T_REC_STR	50
T_REC_BST	0
T_REC_XST	0
T_REC_TTP	0
T_REC_THO	0
T_REC_SLD	50
T_REC_ALL	573
T_NUM_TAP	445
T_NUM_BRK	24
T_NUM_HLD	54
T_NUM_SLD	50
T_NUM_ALL	573
T_JUDGE_TAP	469
T_JUDGE_HLD	124
T_JUDGE_SLD	50
T_JUDGE_ALL	643
TTM_EACHPAIRS	148
TTM_SCR_TAP	222500
TTM_SCR_BRK	62400
TTM_SCR_HLD	54000
TTM_SCR_SLD	75000
TTM_SCR_ALL	413900
TTM_SCR_S	399200
TTM_SCR_SS	411500
TTM_RAT_ACV	10058

