VERSION	0.00.00	1.03.00
FES_MODE	0
BPM_DEF	186.000	186.000	186.000	186.000
MET_DEF	4	4
RESOLUTION	384
CLK_DEF	384
COMPATIBLE_CODE	MA2

BPM	0	0	186.000
MET	0	0	4	4

TAP	5	0	2
TAP	5	96	3
TAP	5	192	2
TAP	6	0	5
TAP	6	96	4
TAP	6	192	5
TAP	7	0	2
TAP	7	96	3
TAP	7	192	2
TAP	8	0	4
TAP	8	0	5
TAP	8	96	4
TAP	8	96	5
TAP	8	192	3
TAP	8	192	6
TAP	9	0	5
TAP	9	96	4
TAP	9	192	5
TAP	10	0	2
TAP	10	96	3
TAP	10	192	2
TAP	11	0	5
TAP	11	96	4
TAP	11	192	5
TAP	12	0	2
TAP	12	0	3
TAP	12	96	2
TAP	12	96	3
TAP	12	192	1
TAP	12	192	4
TAP	13	0	2
TAP	13	96	2
TAP	13	192	3
TAP	13	288	3
TAP	14	0	1
TAP	14	0	4
TAP	14	192	1
TAP	14	192	4
TAP	15	0	5
TAP	15	96	5
TAP	15	192	4
TAP	15	288	4
TAP	16	0	3
TAP	16	0	6
TAP	16	192	3
TAP	16	192	6
TAP	17	0	1
TAP	17	96	1
TAP	17	192	0
TAP	17	288	0
TAP	18	0	2
TAP	18	0	7
TAP	18	192	2
TAP	18	192	7
TAP	19	0	6
TAP	19	96	6
TAP	19	192	7
TAP	19	288	7
TAP	20	0	0
TAP	20	0	5
TAP	20	192	0
TAP	20	192	5
TAP	21	0	2
TAP	21	96	3
TAP	21	192	2
TAP	21	288	3
TAP	22	0	2
TAP	22	96	2
TAP	22	192	1
TAP	22	192	3
TAP	23	0	5
TAP	23	96	4
TAP	23	192	5
TAP	23	288	4
TAP	24	0	5
TAP	24	96	5
TAP	24	192	4
TAP	24	192	6
TAP	25	0	1
TAP	25	96	0
TAP	25	192	1
TAP	25	288	0
TAP	26	0	1
TAP	26	96	1
TAP	26	192	0
TAP	26	192	2
TAP	27	0	6
TAP	27	96	7
TAP	27	192	6
TAP	27	288	7
TAP	28	0	6
TAP	28	96	6
TAP	28	192	5
TAP	28	192	7
STR	29	0	1
SCR	29	0	1	96	288	6
BRK	30	192	0
BRK	30	192	7
HLD	31	0	2	192
TAP	31	192	3
HLD	32	0	5	192
TAP	32	192	4
HLD	33	0	1	192
TAP	33	192	2
HLD	34	0	6	192
TAP	34	192	5
HLD	35	0	1	192
TAP	35	192	0
HLD	36	0	6	192
TAP	36	192	7
TAP	37	0	0
TAP	37	0	7
TAP	37	96	0
TAP	37	96	7
TAP	37	192	0
TAP	37	192	7
TAP	38	0	1
TAP	38	0	6
TAP	38	96	1
TAP	38	96	6
BRK	38	192	1
BRK	38	192	6
TAP	40	0	2
TAP	40	96	2
TAP	40	96	3
TAP	40	192	2
TAP	40	288	2
TAP	40	288	3
TAP	41	0	5
TAP	41	96	4
TAP	41	96	5
TAP	41	192	5
TAP	41	288	4
TAP	41	288	5
TAP	42	0	1
TAP	42	96	0
TAP	42	96	1
TAP	42	192	1
TAP	42	288	0
TAP	42	288	1
TAP	43	0	6
TAP	43	96	6
TAP	43	96	7
TAP	43	192	0
TAP	43	192	5
STR	44	0	1
SI_	44	0	1	96	192	4
STR	45	0	6
SI_	45	0	6	96	192	3
TAP	46	0	2
TAP	46	96	2
TAP	46	96	3
TAP	46	192	5
TAP	46	288	4
TAP	46	288	5
BRK	47	0	0
BRK	47	0	7
TAP	48	0	6
TAP	48	96	6
TAP	48	96	7
TAP	48	192	6
TAP	48	288	6
TAP	48	288	7
TAP	49	0	1
TAP	49	96	0
TAP	49	96	1
TAP	49	192	1
TAP	49	288	0
TAP	49	288	1
TAP	50	0	6
TAP	50	96	6
TAP	50	96	7
TAP	50	192	6
TAP	50	288	6
TAP	50	288	7
TAP	51	0	1
TAP	51	96	0
TAP	51	96	1
TAP	51	192	2
TAP	51	192	7
STR	52	0	6
SI_	52	0	6	96	192	3
STR	53	0	1
SI_	53	0	1	96	192	4
TAP	54	0	5
TAP	54	96	4
TAP	54	96	5
TAP	54	192	2
TAP	54	288	2
TAP	54	288	3
TAP	55	0	5
TAP	55	96	4
TAP	55	96	6
TAP	55	192	2
TAP	55	288	1
TAP	55	288	3
STR	56	0	6
SCL	56	0	6	96	288	1
TAP	57	192	0
TAP	57	192	7
BRK	57	288	1
BRK	57	288	6
HLD	58	0	1	384
HLD	59	0	2	384
HLD	60	0	3	384
TAP	61	0	4
HLD	62	0	6	384
HLD	63	0	5	384
HLD	64	0	4	384
TAP	65	0	3
TAP	66	0	2
TAP	66	96	1
TAP	66	192	0
TAP	66	288	7
TAP	67	0	6
TAP	67	96	5
TAP	67	192	3
TAP	67	192	4
TAP	68	0	5
TAP	68	96	6
TAP	68	192	7
TAP	68	288	0
TAP	69	0	1
TAP	69	96	2
TAP	69	192	3
TAP	69	192	4
STR	70	0	6
SI_	70	0	6	96	192	3
STR	70	0	7
SI_	70	0	7	96	192	2
STR	71	0	0
SI_	71	0	0	96	192	5
STR	71	0	1
SI_	71	0	1	96	192	4
TAP	72	0	7
TAP	72	96	6
TAP	72	192	5
TAP	72	288	4
TAP	73	0	3
TAP	73	96	2
TAP	73	192	1
TAP	73	288	0
TAP	74	0	0
TAP	74	0	7
TAP	74	96	0
TAP	74	96	7
TAP	74	192	0
TAP	74	192	7
TAP	74	288	0
TAP	74	288	7
BRK	75	0	1
BRK	75	0	6
HLD	77	0	5	96
TAP	77	96	4
HLD	77	192	2	96
TAP	77	288	3
HLD	78	0	5	96
TAP	78	96	4
HLD	78	192	2	96
TAP	78	288	3
HLD	79	0	6	96
TAP	79	96	5
HLD	79	192	1	96
TAP	79	288	2
TAP	80	0	6
TAP	80	96	5
TAP	80	96	7
TAP	80	192	0
TAP	80	192	4
STR	81	0	2
SCL	81	0	2	96	192	7
STR	82	0	5
SCR	82	0	5	96	192	0
TAP	83	0	2
TAP	83	96	2
TAP	83	96	3
TAP	83	192	5
TAP	83	288	4
TAP	83	288	5
STR	84	0	0
SI_	84	0	0	96	192	3
STR	84	0	7
SI_	84	0	7	96	192	4
HLD	85	0	1	96
TAP	85	96	0
HLD	85	192	6	96
TAP	85	288	7
HLD	86	0	1	96
TAP	86	96	0
HLD	86	192	6	96
TAP	86	288	7
HLD	87	0	2	96
TAP	87	96	0
HLD	87	192	5	96
TAP	87	288	7
TAP	88	0	1
TAP	88	96	0
TAP	88	96	2
TAP	88	192	3
TAP	88	192	7
TAP	88	288	4
TAP	88	288	6
STR	89	0	5
SCR	89	0	5	96	192	0
STR	90	0	2
SCL	90	0	2	96	192	7
TAP	91	0	5
TAP	91	96	4
TAP	91	96	5
TAP	91	192	2
TAP	91	288	2
TAP	91	288	3
STR	92	0	0
SI_	92	0	0	96	192	3
STR	92	0	7
SI_	92	0	7	96	192	4
STR	93	0	1
SCR	93	0	1	96	288	6
TAP	93	0	6
TAP	94	192	0
TAP	94	192	7
BRK	94	288	1
BRK	94	288	6
TAP	95	0	2
TAP	95	0	3
TAP	95	96	2
TAP	95	96	3
TAP	95	192	4
TAP	95	192	5
TAP	95	288	4
TAP	95	288	5
TAP	96	0	2
TAP	96	0	3
TAP	96	96	2
TAP	96	96	3
TAP	96	192	0
TAP	96	192	7
TAP	97	0	4
TAP	97	0	5
TAP	97	96	4
TAP	97	96	5
TAP	97	192	2
TAP	97	192	3
TAP	97	288	2
TAP	97	288	3
TAP	98	0	4
TAP	98	0	5
TAP	98	96	4
TAP	98	96	5
TAP	98	192	0
TAP	98	192	7
TAP	99	0	2
TAP	99	0	3
TAP	99	96	1
TAP	99	96	4
TAP	99	192	4
TAP	99	192	5
TAP	99	288	3
TAP	99	288	6
TAP	100	0	2
TAP	100	0	3
TAP	100	96	1
TAP	100	96	4
TAP	100	192	0
TAP	100	192	7
TAP	101	0	4
TAP	101	0	5
TAP	101	96	3
TAP	101	96	6
TAP	101	192	2
TAP	101	192	3
TAP	101	288	1
TAP	101	288	4
TAP	102	0	4
TAP	102	0	5
TAP	102	96	3
TAP	102	96	6
BRK	102	192	0
BRK	102	192	7

T_REC_TAP	303
T_REC_BRK	14
T_REC_XTP	0
T_REC_HLD	24
T_REC_XHO	0
T_REC_STR	19
T_REC_BST	0
T_REC_XST	0
T_REC_TTP	0
T_REC_THO	0
T_REC_SLD	19
T_REC_ALL	379
T_NUM_TAP	322
T_NUM_BRK	14
T_NUM_HLD	24
T_NUM_SLD	19
T_NUM_ALL	379
T_JUDGE_TAP	336
T_JUDGE_HLD	96
T_JUDGE_SLD	19
T_JUDGE_ALL	451
TTM_EACHPAIRS	101
TTM_SCR_TAP	161000
TTM_SCR_BRK	36400
TTM_SCR_HLD	24000
TTM_SCR_SLD	28500
TTM_SCR_ALL	249900
TTM_SCR_S	241050
TTM_SCR_SS	248500
TTM_RAT_ACV	10056

