VERSION	0.00.00	1.03.00
FES_MODE	0
BPM_DEF	186.000	186.000	186.000	186.000
MET_DEF	4	4
RESOLUTION	384
CLK_DEF	384
COMPATIBLE_CODE	MA2

BPM	0	0	186.000
MET	0	0	4	4

TAP	1	0	0
TAP	2	0	0
TAP	3	0	7
TAP	3	192	7
TAP	4	0	7
TAP	5	0	0
TAP	5	192	0
TAP	6	0	1
TAP	6	192	1
TAP	7	0	2
TAP	7	192	2
TAP	8	0	3
TAP	8	96	4
TAP	8	192	3
TAP	9	0	4
TAP	9	192	4
TAP	10	0	5
TAP	10	192	5
TAP	11	0	6
TAP	11	192	6
TAP	12	0	7
TAP	12	96	0
TAP	12	192	7
TAP	13	0	7
TAP	13	192	7
TAP	14	0	6
TAP	14	192	6
TAP	15	0	5
TAP	15	96	5
TAP	15	192	5
HLD	16	0	4	192
TAP	17	0	3
TAP	17	192	3
TAP	18	0	2
TAP	18	192	2
TAP	19	0	1
TAP	19	96	1
TAP	19	192	1
HLD	20	0	0	192
TAP	21	0	0
TAP	21	96	0
TAP	21	192	0
TAP	22	0	1
TAP	22	96	1
TAP	22	192	1
TAP	23	0	2
TAP	23	96	3
TAP	23	192	2
HLD	24	0	3	192
HLD	24	0	4	192
TAP	25	0	4
TAP	25	96	4
TAP	25	192	4
TAP	26	0	5
TAP	26	96	5
TAP	26	192	5
TAP	27	0	6
TAP	27	96	7
TAP	27	192	6
HLD	28	0	0	192
HLD	28	0	7	192
STR	29	0	0
SI_	29	0	0	96	288	4
TAP	31	0	4
TAP	31	0	5
TAP	31	192	4
TAP	31	192	5
TAP	32	0	2
TAP	32	0	3
TAP	32	192	2
TAP	32	192	3
TAP	33	0	0
TAP	33	0	1
TAP	33	192	0
TAP	33	192	1
TAP	34	0	6
TAP	34	0	7
TAP	34	192	6
TAP	34	192	7
HLD	35	0	0	192
HLD	35	0	1	192
HLD	36	0	6	192
HLD	36	0	7	192
HLD	37	0	3	192
HLD	37	0	4	192
TAP	38	0	3
TAP	38	0	4
TAP	38	96	3
TAP	38	96	4
TAP	38	192	2
TAP	38	192	5
BRK	39	0	3
TAP	40	0	3
TAP	40	96	3
TAP	40	192	3
TAP	41	0	2
TAP	41	96	2
TAP	41	192	2
TAP	42	0	1
TAP	42	96	1
TAP	42	192	0
TAP	42	288	0
TAP	43	0	7
TAP	43	96	7
TAP	43	192	0
TAP	43	192	7
STR	44	0	7
SI_	44	0	7	96	288	3
TAP	46	0	2
TAP	46	96	2
TAP	46	192	3
TAP	46	288	3
HLD	47	0	2	192
HLD	47	0	4	192
TAP	48	0	4
TAP	48	96	4
TAP	48	192	4
TAP	49	0	5
TAP	49	96	5
TAP	49	192	5
TAP	50	0	6
TAP	50	96	6
TAP	50	192	7
TAP	50	288	7
TAP	51	0	0
TAP	51	96	0
TAP	51	192	0
TAP	51	192	7
STR	52	0	0
SI_	52	0	0	96	288	4
TAP	54	0	5
TAP	54	96	5
TAP	54	192	4
TAP	54	288	4
TAP	55	0	3
TAP	55	96	3
TAP	55	192	2
TAP	55	192	4
TAP	56	0	2
TAP	56	0	3
TAP	56	96	2
TAP	56	96	3
TAP	56	192	4
TAP	56	192	5
TAP	56	288	4
TAP	56	288	5
TAP	57	0	3
TAP	57	96	4
TAP	57	192	2
TAP	57	192	5
STR	58	0	1
SI_	58	0	1	96	288	4
STR	60	0	6
SI_	60	0	6	96	288	3
STR	62	0	0
SI_	62	0	0	96	288	4
STR	64	0	7
SI_	64	0	7	96	288	3
TAP	66	0	2
TAP	66	192	2
TAP	67	0	2
TAP	67	0	3
TAP	68	0	5
TAP	68	192	5
TAP	69	0	4
TAP	69	0	5
TAP	70	0	6
TAP	70	192	6
TAP	71	0	6
TAP	71	0	7
TAP	72	0	1
TAP	72	192	1
TAP	73	0	0
TAP	73	0	1
TAP	74	0	0
TAP	74	0	7
TAP	74	96	0
TAP	74	96	7
TAP	74	192	0
TAP	74	192	7
TAP	75	0	0
TAP	75	96	7
TAP	75	192	1
TAP	75	192	6
BRK	76	0	0
TAP	77	0	0
TAP	77	96	0
TAP	77	192	0
TAP	78	0	1
TAP	78	96	1
TAP	78	192	1
TAP	79	0	2
TAP	79	96	2
TAP	79	192	3
TAP	79	288	3
TAP	80	0	4
TAP	80	96	4
TAP	80	192	3
TAP	80	192	5
TAP	81	0	5
TAP	81	96	4
TAP	81	192	2
TAP	81	192	3
TAP	82	0	2
TAP	82	96	3
TAP	82	192	4
TAP	82	192	5
TAP	83	0	4
TAP	83	96	4
TAP	83	192	5
TAP	83	288	5
HLD	84	0	6	192
HLD	84	0	7	192
TAP	85	0	7
TAP	85	96	7
TAP	85	192	7
TAP	86	0	6
TAP	86	96	6
TAP	86	192	6
TAP	87	0	5
TAP	87	96	5
TAP	87	192	4
TAP	87	288	4
TAP	88	0	3
TAP	88	96	3
TAP	88	192	2
TAP	88	192	4
TAP	89	0	2
TAP	89	96	3
TAP	89	192	4
TAP	89	192	5
TAP	90	0	5
TAP	90	96	4
TAP	90	192	2
TAP	90	192	3
TAP	91	0	3
TAP	91	96	3
TAP	91	192	2
TAP	91	288	2
HLD	92	0	0	192
HLD	92	0	1	192
TAP	93	0	0
TAP	93	96	0
TAP	93	192	7
TAP	93	288	7
TAP	94	0	0
TAP	94	96	7
TAP	94	192	0
BRK	94	288	7
TAP	95	0	0
TAP	95	96	0
TAP	95	192	0
TAP	96	0	1
TAP	96	96	1
TAP	96	192	1
TAP	97	0	2
TAP	97	96	3
TAP	97	192	2
HLD	98	0	3	192
HLD	98	0	4	192
TAP	99	0	4
TAP	99	96	4
TAP	99	192	4
TAP	100	0	5
TAP	100	96	5
TAP	100	192	5
TAP	101	0	6
TAP	101	96	7
TAP	101	192	6
TAP	102	0	0
TAP	102	0	7
TAP	102	96	0
TAP	102	96	7
TAP	102	192	1
TAP	102	192	6

T_REC_TAP	238
T_REC_BRK	3
T_REC_XTP	0
T_REC_HLD	20
T_REC_XHO	0
T_REC_STR	7
T_REC_BST	0
T_REC_XST	0
T_REC_TTP	0
T_REC_THO	0
T_REC_SLD	7
T_REC_ALL	275
T_NUM_TAP	245
T_NUM_BRK	3
T_NUM_HLD	20
T_NUM_SLD	7
T_NUM_ALL	275
T_JUDGE_TAP	248
T_JUDGE_HLD	80
T_JUDGE_SLD	7
T_JUDGE_ALL	335
TTM_EACHPAIRS	45
TTM_SCR_TAP	122500
TTM_SCR_BRK	7800
TTM_SCR_HLD	20000
TTM_SCR_SLD	10500
TTM_SCR_ALL	160800
TTM_SCR_S	155700
TTM_SCR_SS	160500
TTM_RAT_ACV	10018

