VERSION	0.00.00	1.03.00
FES_MODE	0
BPM_DEF	150.000	150.000	150.000	150.000
MET_DEF	4	4
RESOLUTION	384
CLK_DEF	384
COMPATIBLE_CODE	MA2

BPM	0	0	150.000
MET	0	0	4	4

STR	1	0	1
SI_	1	0	1	96	480	5
STR	1	0	6
SI_	1	0	6	96	480	2
TAP	3	0	0
TAP	3	0	3
TAP	3	144	4
TAP	3	144	7
TAP	4	0	1
TAP	4	48	1
TAP	4	96	6
TAP	4	144	6
TAP	4	192	0
TAP	4	216	7
TAP	4	240	0
TAP	4	264	7
TAP	4	288	0
TAP	4	300	1
TAP	4	312	2
TAP	4	324	3
TAP	4	336	4
TAP	4	348	5
TAP	4	360	6
TAP	4	372	7
HLD	5	0	0	72
HLD	5	72	1	72
TAP	5	144	2
HLD	5	192	6	72
HLD	5	264	5	72
TAP	5	336	4
HLD	6	0	1	72
HLD	6	72	2	72
TAP	6	144	3
TAP	6	192	7
TAP	6	240	5
TAP	6	288	3
TAP	6	336	1
HLD	7	0	7	72
HLD	7	72	6	72
TAP	7	144	5
HLD	7	192	1	72
HLD	7	264	2	72
TAP	7	336	3
HLD	8	0	6	72
HLD	8	72	5	72
TAP	8	144	4
TAP	8	192	0
TAP	8	240	2
TAP	8	288	4
TAP	8	336	6
BRK	9	0	0
TAP	9	48	1
TAP	9	48	7
TAP	9	96	2
TAP	9	144	1
TAP	9	144	3
TAP	9	192	4
TAP	9	240	1
TAP	9	264	0
TAP	9	336	1
TAP	9	336	7
TAP	10	0	4
TAP	10	48	1
TAP	10	72	0
TAP	10	144	1
TAP	10	144	3
TAP	10	192	7
TAP	10	240	1
TAP	10	240	5
TAP	10	288	3
TAP	10	336	1
TAP	10	336	5
TAP	11	0	7
TAP	11	48	0
TAP	11	48	6
TAP	11	96	5
TAP	11	144	4
TAP	11	144	6
TAP	11	192	3
TAP	11	240	6
TAP	11	264	7
TAP	11	336	0
TAP	11	336	6
STR	12	0	1
SI_	12	0	1	96	48	5
TAP	12	48	1
STR	12	96	6
SI_	12	96	6	96	48	2
TAP	12	144	6
TAP	12	192	1
TAP	12	240	1
TAP	12	288	6
TAP	12	312	1
TAP	12	336	6
TAP	12	360	1
BRK	13	0	7
TAP	13	48	0
TAP	13	48	6
TAP	13	96	5
TAP	13	144	4
TAP	13	144	6
TAP	13	192	3
TAP	13	240	6
TAP	13	264	7
TAP	13	336	0
TAP	13	336	6
TAP	14	0	3
TAP	14	48	6
TAP	14	72	7
TAP	14	144	4
TAP	14	144	6
TAP	14	192	0
TAP	14	240	2
TAP	14	240	6
TAP	14	288	4
TAP	14	336	2
TAP	14	336	6
BRK	15	0	0
TAP	15	48	1
TAP	15	48	7
TAP	15	96	2
TAP	15	144	1
TAP	15	144	3
BRK	15	192	4
TAP	15	240	1
TAP	15	264	0
TAP	15	336	1
TAP	15	336	7
BST	16	0	6
SI_	16	0	6	96	48	2
TAP	16	48	6
BST	16	96	1
SI_	16	96	1	96	48	5
TAP	16	144	1
BRK	16	192	7
TAP	16	240	7
BRK	16	288	0
TAP	16	336	2
TAP	16	336	6
HLD	17	0	4	48
TAP	17	48	2
HLD	17	72	4	48
TAP	17	120	6
HLD	17	144	4	96
TAP	17	240	0
TAP	17	288	1
TAP	17	288	5
TAP	17	336	2
TAP	17	336	6
HLD	18	0	3	48
TAP	18	0	7
TAP	18	48	5
HLD	18	72	3	48
TAP	18	120	1
HLD	18	144	3	96
TAP	18	240	7
TAP	18	288	2
TAP	18	288	6
TAP	18	336	1
TAP	18	336	5
HLD	19	0	0	48
TAP	19	0	4
TAP	19	48	6
HLD	19	72	0	48
TAP	19	120	2
HLD	19	144	0	96
TAP	19	240	4
TAP	19	288	1
TAP	19	288	5
TAP	19	336	2
TAP	19	336	6
TAP	20	0	3
HLD	20	0	7	96
TAP	20	48	5
HLD	20	96	0	96
TAP	20	144	2
HLD	20	192	4	96
TAP	20	240	6
HLD	20	288	3	96
TAP	20	336	1
HLD	21	0	7	48
TAP	21	48	1
HLD	21	72	7	48
TAP	21	120	5
HLD	21	144	7	96
TAP	21	240	3
TAP	21	288	2
TAP	21	288	6
TAP	21	336	1
TAP	21	336	5
HLD	22	0	0	48
TAP	22	0	4
TAP	22	48	6
HLD	22	72	0	48
TAP	22	120	2
HLD	22	144	0	96
TAP	22	240	4
TAP	22	288	1
TAP	22	288	5
TAP	22	336	2
TAP	22	336	6
HLD	23	0	3	48
TAP	23	0	7
TAP	23	48	5
HLD	23	72	3	48
TAP	23	120	1
HLD	23	144	3	96
TAP	23	240	7
TAP	23	288	2
TAP	23	288	6
TAP	23	336	1
TAP	23	336	5
TAP	24	0	0
HLD	24	0	4	96
TAP	24	48	6
HLD	24	96	3	96
TAP	24	144	1
HLD	24	192	7	96
TAP	24	240	5
HLD	24	288	0	96
TAP	24	336	2
BRK	25	0	7
STR	26	0	0
SI_	26	0	0	96	24	4
STR	26	0	7
SI_	26	0	7	96	24	3
TAP	26	72	0
TAP	26	72	7
BRK	26	144	1
BRK	26	144	6
TAP	26	240	0
TAP	26	240	4
STR	26	288	6
SI_	26	288	6	96	432	2
TAP	26	336	3
TAP	27	0	1
TAP	27	48	7
TAP	27	96	5
TAP	27	144	3
TAP	27	192	1
TAP	27	240	7
TAP	27	288	5
TAP	27	336	3
STR	28	0	1
SI_	28	0	1	96	24	5
TAP	28	48	7
BRK	28	96	5
STR	28	192	4
SI_	28	192	4	96	48	0
STR	28	192	6
SI_	28	192	6	96	48	2
TAP	28	288	4
TAP	28	288	6
TAP	29	0	0
TAP	29	0	1
TAP	29	48	6
TAP	29	72	7
TAP	29	144	1
TAP	29	144	3
TAP	29	192	4
TAP	29	192	6
TAP	29	240	1
TAP	29	264	0
TAP	29	336	4
TAP	29	336	6
HLD	30	0	2	96
TAP	30	48	3
HLD	30	96	7	96
TAP	30	144	0
HLD	30	192	4	96
TAP	30	240	5
HLD	30	288	7	96
TAP	30	336	0
HLD	31	0	2	48
TAP	31	48	3
TAP	31	72	2
TAP	31	144	0
TAP	31	144	6
HLD	31	192	5	48
TAP	31	240	4
TAP	31	264	5
TAP	31	336	1
TAP	31	336	7
HLD	32	0	2	96
TAP	32	48	1
HLD	32	96	3	96
TAP	32	144	4
HLD	32	192	2	96
TAP	32	240	0
HLD	32	288	3	96
TAP	32	336	5
HLD	33	0	2	48
TAP	33	48	3
TAP	33	72	2
TAP	33	144	1
TAP	33	144	4
HLD	33	192	6	96
TAP	33	240	7
HLD	33	288	0	96
TAP	33	336	1
HLD	34	0	2	96
TAP	34	48	3
HLD	34	96	4	96
TAP	34	144	5
HLD	34	192	6	96
TAP	34	240	7
STR	34	288	0
SI_	34	288	0	96	48	4
TAP	34	336	1
TAP	35	0	2
TAP	35	48	3
TAP	35	96	4
TAP	35	144	5
HLD	35	192	6	96
TAP	35	240	7
HLD	35	288	1	96
TAP	35	336	0
HLD	36	0	4	48
TAP	36	48	3
TAP	36	72	4
TAP	36	144	1
TAP	36	144	6
TAP	36	240	0
TAP	36	240	1
TAP	36	288	2
TAP	36	288	3
TAP	36	336	4
TAP	36	336	5
TAP	37	0	6
TAP	37	0	7
TAP	37	48	1
TAP	37	72	0
TAP	37	144	4
TAP	37	144	6
TAP	37	192	1
TAP	37	192	3
TAP	37	240	6
TAP	37	264	7
TAP	37	336	1
TAP	37	336	3
HLD	38	0	5	96
TAP	38	48	4
HLD	38	96	0	96
TAP	38	144	7
HLD	38	192	3	96
TAP	38	240	2
HLD	38	288	0	96
TAP	38	336	7
HLD	39	0	5	48
TAP	39	48	4
TAP	39	72	5
TAP	39	144	1
STR	39	144	7
SCL	39	144	7	96	48	4
TAP	39	240	3
TAP	39	288	2
TAP	39	336	1
BST	40	0	0
SI_	40	0	0	96	24	4
TAP	40	48	4
BST	40	96	6
SI_	40	96	6	96	24	2
TAP	40	144	2
BST	40	192	1
SI_	40	192	1	96	24	5
TAP	40	240	5
BST	40	288	7
SI_	40	288	7	96	24	3
TAP	40	336	3
BST	41	0	0
SCR	41	0	0	96	576	7
HLD	43	0	4	576
HLD	44	192	2	192
HLD	45	0	6	768
TAP	46	192	0
TAP	46	240	0
TAP	46	288	0
TAP	46	336	0
TAP	47	0	0
TAP	47	12	1
TAP	47	24	2
TAP	47	36	3
TAP	47	48	4
TAP	47	60	5
TAP	47	72	6
TAP	47	84	7
TAP	47	96	0
TAP	47	108	1
TAP	47	120	2
TAP	47	132	3
TAP	47	144	4
TAP	47	156	5
TAP	47	168	6
TAP	47	180	7
TAP	47	192	0
TAP	47	204	1
TAP	47	216	2
TAP	47	228	3
TAP	47	240	4
TAP	47	252	5
TAP	47	264	6
TAP	47	276	7
TAP	47	288	0
TAP	47	300	1
TAP	47	312	2
TAP	47	324	3
TAP	47	336	4
TAP	47	348	5
TAP	47	360	6
TAP	47	372	7
TAP	48	0	0
TAP	48	12	1
TAP	48	24	2
TAP	48	36	3
TAP	48	48	4
TAP	48	60	5
TAP	48	72	6
TAP	48	84	7
TAP	48	96	0
TAP	48	108	1
TAP	48	120	2
TAP	48	132	3
TAP	48	144	4
TAP	48	156	5
TAP	48	168	6
TAP	48	180	7
TAP	48	192	0
TAP	48	204	1
TAP	48	216	2
TAP	48	228	3
TAP	48	240	4
TAP	48	252	5
TAP	48	264	6
TAP	48	276	7
TAP	48	288	0
TAP	48	300	1
TAP	48	312	2
TAP	48	324	3
TAP	48	336	4
TAP	48	348	5
TAP	48	360	6
TAP	48	372	7
HLD	49	0	0	72
HLD	49	72	1	72
TAP	49	144	2
TAP	49	192	6
TAP	49	240	5
TAP	49	240	7
TAP	49	288	1
TAP	49	336	0
TAP	49	336	2
TAP	50	0	3
TAP	50	0	4
TAP	50	48	1
TAP	50	72	3
STR	50	96	2
SXR	50	96	2	96	144	4
TAP	50	144	6
HLD	50	168	6	216
TAP	51	0	4
TAP	51	24	6
TAP	51	48	0
TAP	51	72	6
TAP	51	96	4
TAP	51	120	6
TAP	51	144	0
TAP	51	168	6
TAP	51	192	4
TAP	51	216	6
TAP	51	240	1
TAP	51	264	6
TAP	51	288	4
TAP	51	312	6
TAP	51	336	1
TAP	51	360	6
TAP	52	0	4
TAP	52	24	6
TAP	52	48	2
TAP	52	72	6
TAP	52	96	4
TAP	52	120	6
TAP	52	144	2
TAP	52	168	6
HLD	52	192	4	96
TAP	52	288	3
TAP	53	0	2
TAP	53	24	3
TAP	53	48	1
TAP	53	72	4
TAP	53	96	3
TAP	53	120	6
TAP	53	144	4
TAP	53	168	5
HLD	53	192	3	48
TAP	53	240	4
TAP	53	264	3
TAP	53	288	4
TAP	53	336	1
TAP	53	336	6
TAP	54	0	0
TAP	54	24	4
TAP	54	48	0
TAP	54	72	4
TAP	54	96	1
TAP	54	120	5
TAP	54	144	1
TAP	54	168	5
TAP	54	192	2
TAP	54	216	6
TAP	54	240	2
TAP	54	264	6
TAP	54	288	3
TAP	54	312	7
TAP	54	336	3
TAP	54	360	7
HLD	55	0	4	144
TAP	55	144	3
TAP	55	168	4
TAP	55	192	3
TAP	55	240	6
TAP	55	240	7
TAP	55	288	3
TAP	55	288	4
TAP	55	336	0
TAP	55	336	1
TAP	56	0	7
STR	56	48	5
SXL	56	48	5	96	144	3
TAP	56	96	3
HLD	56	144	1	144
HLD	57	0	6	144
TAP	57	48	1
TAP	57	96	3
HLD	57	144	5	192
TAP	57	240	0
TAP	57	288	2
HLD	57	336	4	192
TAP	58	0	7
TAP	58	48	1
HLD	58	144	3	192
TAP	58	240	6
TAP	58	288	0
HLD	58	336	2	192
TAP	59	0	5
TAP	59	48	7
HLD	59	144	1	192
TAP	59	240	4
TAP	59	288	6
HLD	59	336	0	336
TAP	60	0	3
TAP	60	48	5
HLD	60	144	7	144
HLD	61	0	7	72
HLD	61	72	6	72
TAP	61	144	5
TAP	61	192	0
TAP	61	192	1
TAP	61	240	2
TAP	61	240	3
TAP	61	288	4
TAP	61	288	5
TAP	61	336	6
TAP	61	336	7
TAP	62	0	0
TAP	62	24	4
TAP	62	48	1
TAP	62	72	5
TAP	62	96	2
TAP	62	120	6
TAP	62	144	3
TAP	62	168	7
TAP	62	192	2
TAP	62	216	6
TAP	62	240	1
TAP	62	264	5
TAP	62	288	0
TAP	62	312	4
TAP	62	336	7
TAP	62	360	3
HLD	63	0	2	672
HLD	63	0	6	672
HLD	65	0	4	72
HLD	65	72	5	72
HLD	65	144	6	96
TAP	65	240	7
TAP	65	288	0
TAP	65	288	7
TAP	65	336	0
TAP	65	336	1
HLD	66	0	3	72
HLD	66	72	2	72
HLD	66	144	1	96
TAP	66	240	0
TAP	66	288	0
TAP	66	288	7
TAP	66	336	6
TAP	66	336	7
HLD	67	0	4	72
HLD	67	72	6	72
HLD	67	144	0	96
TAP	67	240	1
TAP	67	288	0
TAP	67	288	7
TAP	67	336	6
TAP	67	336	7
HLD	68	0	3	72
HLD	68	72	1	72
HLD	68	144	7	96
TAP	68	240	6
TAP	68	288	0
TAP	68	288	7
TAP	68	336	0
TAP	68	336	1
HLD	69	0	4	72
TAP	69	72	3
TAP	69	96	4
TAP	69	144	2
TAP	69	144	5
HLD	69	192	1	72
TAP	69	264	0
TAP	69	288	1
TAP	69	336	2
TAP	69	336	7
HLD	70	0	6	72
TAP	70	72	7
TAP	70	96	6
TAP	70	144	0
TAP	70	144	5
TAP	70	192	3
TAP	70	192	4
TAP	70	240	2
TAP	70	240	5
TAP	70	288	1
TAP	70	288	6
TAP	70	336	0
TAP	70	336	7
HLD	71	0	0	48
HLD	71	0	6	48
HLD	71	72	4	48
HLD	71	72	6	48
TAP	71	144	2
TAP	71	144	6
HLD	71	192	1	48
HLD	71	192	7	48
HLD	71	264	1	48
HLD	71	264	3	48
TAP	71	336	1
TAP	71	336	5
HLD	72	0	2	48
HLD	72	0	3	48
HLD	72	72	4	48
HLD	72	72	5	48
TAP	72	144	0
TAP	72	144	1
HLD	72	192	2	48
HLD	72	192	3	48
BRK	72	264	6
BRK	72	264	7
HLD	73	0	1	48
HLD	73	0	7	48
HLD	73	72	1	48
HLD	73	72	3	48
TAP	73	144	1
TAP	73	144	5
HLD	73	192	0	48
HLD	73	192	6	48
HLD	73	264	4	48
HLD	73	264	6	48
TAP	73	336	2
TAP	73	336	6
HLD	74	0	1	48
HLD	74	0	4	48
HLD	74	72	3	48
HLD	74	72	6	48
TAP	74	144	1
TAP	74	144	4
HLD	74	192	2	48
HLD	74	192	3	48
HLD	74	264	4	48
HLD	74	264	5	48
BST	74	336	0
SI_	74	336	0	96	24	5
BST	74	336	1
SI_	74	336	1	96	24	4

T_REC_TAP	497
T_REC_BRK	12
T_REC_XTP	0
T_REC_HLD	129
T_REC_XHO	0
T_REC_STR	14
T_REC_BST	9
T_REC_XST	0
T_REC_TTP	0
T_REC_THO	0
T_REC_SLD	23
T_REC_ALL	684
T_NUM_TAP	511
T_NUM_BRK	21
T_NUM_HLD	129
T_NUM_SLD	23
T_NUM_ALL	684
T_JUDGE_TAP	532
T_JUDGE_HLD	282
T_JUDGE_SLD	23
T_JUDGE_ALL	837
TTM_EACHPAIRS	112
TTM_SCR_TAP	255500
TTM_SCR_BRK	54600
TTM_SCR_HLD	129000
TTM_SCR_SLD	34500
TTM_SCR_ALL	473600
TTM_SCR_S	457400
TTM_SCR_SS	471500
TTM_RAT_ACV	10044

