VERSION	0.00.00	1.03.00
FES_MODE	0
BPM_DEF	150.000	150.000	150.000	150.000
MET_DEF	4	4
RESOLUTION	384
CLK_DEF	384
COMPATIBLE_CODE	MA2

BPM	0	0	150.000
MET	0	0	4	4

TAP	5	0	0
TAP	5	96	2
TAP	5	96	3
TAP	5	192	7
TAP	5	288	4
TAP	5	288	5
TAP	6	0	1
TAP	6	0	3
TAP	6	96	4
TAP	6	96	6
TAP	6	192	3
TAP	6	192	4
TAP	6	288	1
TAP	6	288	6
TAP	7	0	3
TAP	7	96	0
TAP	7	96	1
TAP	7	192	4
TAP	7	288	6
TAP	7	288	7
TAP	8	0	3
TAP	8	0	4
BRK	8	96	1
BRK	8	96	6
HLD	9	0	2	96
TAP	9	96	3
TAP	9	192	1
TAP	9	240	0
TAP	9	288	1
HLD	10	0	5	96
TAP	10	96	4
TAP	10	192	6
TAP	10	240	7
TAP	10	288	6
HLD	11	0	2	96
TAP	11	96	3
TAP	11	192	0
TAP	11	240	7
TAP	11	288	0
STR	12	0	1
SI_	12	0	1	96	48	4
STR	12	96	6
SI_	12	96	6	96	48	3
TAP	12	192	0
TAP	12	288	2
TAP	12	288	7
HLD	13	0	1	96
TAP	13	96	0
TAP	13	192	5
TAP	13	240	4
TAP	13	288	5
HLD	14	0	6	96
TAP	14	96	7
TAP	14	192	2
TAP	14	240	3
TAP	14	288	2
HLD	15	0	1	96
TAP	15	96	0
TAP	15	192	7
TAP	15	240	0
TAP	15	288	7
STR	16	0	6
SI_	16	0	6	96	48	3
STR	16	96	1
SI_	16	96	1	96	48	4
TAP	16	192	7
TAP	16	288	0
TAP	16	288	5
STR	17	0	5
SCL	17	0	5	96	96	2
TAP	17	240	0
TAP	17	288	0
STR	18	0	2
SCR	18	0	2	96	96	6
TAP	18	240	7
TAP	18	288	7
STR	19	0	5
SCL	19	0	5	96	96	1
TAP	19	240	0
TAP	19	288	0
TAP	20	0	2
TAP	20	0	4
TAP	20	96	3
TAP	20	96	5
TAP	20	192	1
TAP	20	192	4
TAP	20	288	3
TAP	20	288	6
STR	21	0	1
SXL	21	0	1	96	144	4
TAP	21	240	7
TAP	21	288	7
STR	22	0	6
SXR	22	0	6	96	144	3
TAP	22	240	0
TAP	22	288	0
STR	23	0	1
SXL	23	0	1	96	144	4
TAP	23	240	7
TAP	23	288	7
TAP	24	0	0
TAP	24	0	6
TAP	24	96	1
TAP	24	96	7
TAP	24	192	0
TAP	24	192	5
TAP	24	288	2
TAP	24	288	7
BST	25	0	3
SI_	25	0	3	96	96	6
BST	25	0	4
SI_	25	0	4	96	96	1
TAP	26	0	1
TAP	26	0	3
TAP	26	72	4
TAP	26	72	6
BRK	26	144	0
BRK	26	144	7
TAP	26	240	0
TAP	26	240	1
TAP	26	288	2
TAP	26	288	7
TAP	26	336	6
TAP	26	336	7
STR	27	0	0
SI_	27	0	0	96	48	4
TAP	27	0	5
TAP	27	96	7
STR	27	192	7
SI_	27	192	7	96	48	3
TAP	27	288	0
STR	28	0	1
SI_	28	0	1	96	48	5
TAP	28	96	7
TAP	28	192	4
TAP	28	192	6
TAP	28	288	0
TAP	28	288	1
HLD	29	0	6	72
HLD	29	72	5	72
TAP	29	144	4
HLD	29	192	1	72
HLD	29	264	2	72
STR	29	336	3
SCL	29	336	3	96	144	4
TAP	30	288	0
TAP	30	288	7
HLD	31	0	5	72
TAP	31	72	6
TAP	31	144	0
TAP	31	144	4
HLD	31	192	2	72
TAP	31	264	1
TAP	31	336	3
TAP	31	336	7
STR	32	0	6
SI_	32	0	6	96	48	3
TAP	32	96	7
STR	32	192	1
SI_	32	192	1	96	48	4
TAP	32	288	0
TAP	33	0	5
TAP	33	0	7
TAP	33	72	0
TAP	33	72	2
TAP	33	144	1
TAP	33	144	6
TAP	33	288	3
TAP	33	288	4
TAP	34	0	1
TAP	34	0	3
TAP	34	96	4
TAP	34	96	6
TAP	34	192	2
TAP	34	192	5
TAP	34	288	0
TAP	34	288	7
TAP	34	336	0
TAP	34	336	7
BST	35	0	1
SI_	35	0	1	96	48	5
BST	35	0	6
SI_	35	0	6	96	48	2
TAP	35	192	0
TAP	35	192	7
TAP	35	288	2
TAP	35	336	3
TAP	36	0	1
TAP	36	0	4
TAP	36	96	5
TAP	36	144	4
TAP	36	192	3
TAP	36	192	6
TAP	36	288	0
TAP	36	288	1
TAP	36	336	0
TAP	36	336	1
TAP	37	0	2
TAP	37	0	7
TAP	37	96	6
TAP	37	96	7
TAP	37	144	6
TAP	37	144	7
TAP	37	192	0
TAP	37	192	5
TAP	37	288	3
TAP	37	288	4
TAP	37	336	3
TAP	37	336	4
TAP	38	0	1
TAP	38	0	6
TAP	38	96	0
TAP	38	96	2
TAP	38	192	5
TAP	38	192	7
TAP	38	288	3
TAP	38	288	4
STR	39	0	2
SLL	39	0	2	96	96	4
STR	39	0	5
SLR	39	0	5	96	96	3
TAP	39	288	1
TAP	39	288	6
STR	40	0	2
SI_	40	0	2	96	48	7
STR	40	0	3
SI_	40	0	3	96	48	6
STR	40	192	4
SI_	40	192	4	96	48	1
STR	40	192	5
SI_	40	192	5	96	48	0
BRK	41	0	2
BRK	41	0	5
TAP	43	0	0
STR	43	0	1
SI_	43	0	1	96	48	4
TAP	43	96	0
STR	43	192	6
SI_	43	192	6	96	48	3
TAP	43	192	7
TAP	43	288	7
TAP	44	0	0
STR	44	0	1
SI_	44	0	1	96	48	5
TAP	44	96	0
STR	44	192	6
SI_	44	192	6	96	48	2
TAP	44	192	7
TAP	44	288	7
TAP	45	0	0
STR	45	0	1
SCR	45	0	1	96	48	4
TAP	45	96	0
STR	45	192	6
SCL	45	192	6	96	48	3
TAP	45	192	7
TAP	45	288	7
STR	46	0	2
SCL	46	0	2	96	48	7
TAP	46	0	3
TAP	46	96	3
TAP	46	192	4
STR	46	192	5
SCR	46	192	5	96	48	0
TAP	46	288	4
TAP	47	0	0
TAP	47	0	7
TAP	47	96	1
TAP	47	96	6
TAP	47	192	2
TAP	47	192	5
TAP	47	288	3
TAP	47	288	4
TAP	48	0	3
TAP	48	0	4
TAP	48	48	3
TAP	48	48	4
TAP	48	96	2
TAP	48	96	5
TAP	48	144	2
TAP	48	144	5
TAP	48	192	1
TAP	48	192	6
TAP	48	240	1
TAP	48	240	6
BRK	48	288	0
BRK	48	288	7
HLD	49	0	6	96
HLD	49	96	4	96
TAP	49	192	2
TAP	49	288	1
TAP	49	288	7
HLD	50	0	1	96
HLD	50	96	3	96
TAP	50	192	5
TAP	50	288	0
TAP	50	288	6
TAP	51	0	4
HLD	51	0	5	96
TAP	51	96	1
HLD	51	192	2	96
TAP	51	192	3
TAP	51	288	6
TAP	52	0	4
HLD	52	0	5	96
TAP	52	96	0
HLD	52	192	2	96
TAP	52	192	3
TAP	52	288	7
HLD	53	0	6	96
HLD	53	96	5	96
STR	53	192	4
SI_	53	192	4	96	48	0
TAP	53	288	3
HLD	54	0	1	96
HLD	54	96	2	96
STR	54	192	3
SI_	54	192	3	96	48	7
TAP	54	288	4
STR	55	0	1
SI_	55	0	1	96	48	4
STR	55	0	5
SI_	55	0	5	96	48	0
STR	55	192	2
SI_	55	192	2	96	48	7
STR	55	192	6
SI_	55	192	6	96	48	3
STR	56	0	0
SI_	56	0	0	96	48	4
STR	56	0	1
SI_	56	0	1	96	48	3
STR	56	192	6
SI_	56	192	6	96	48	4
STR	56	192	7
SI_	56	192	7	96	48	3
STR	57	0	1
SI_	57	0	1	96	48	4
STR	57	96	0
SI_	57	96	0	96	48	5
STR	57	192	3
SI_	57	192	3	96	48	7
TAP	57	288	5
STR	58	0	6
SI_	58	0	6	96	48	3
STR	58	96	7
SI_	58	96	7	96	48	2
STR	58	192	4
SI_	58	192	4	96	48	0
TAP	58	288	2
TAP	59	0	3
TAP	59	48	3
TAP	59	96	2
TAP	59	96	6
TAP	59	192	4
TAP	59	240	4
TAP	59	288	1
TAP	59	288	5
TAP	60	0	2
TAP	60	48	2
TAP	60	96	1
TAP	60	96	7
TAP	60	192	5
TAP	60	240	5
TAP	60	288	0
TAP	60	288	6
TAP	61	0	7
TAP	61	48	6
TAP	61	96	5
TAP	61	144	4
TAP	61	192	3
TAP	61	240	2
TAP	61	288	1
TAP	61	336	0
TAP	62	0	0
TAP	62	48	1
TAP	62	96	2
TAP	62	144	3
TAP	62	192	4
TAP	62	240	5
TAP	62	288	6
TAP	62	336	7
STR	63	0	0
SCR	63	0	0	96	192	7
HLD	64	0	6	72
HLD	64	72	5	72
TAP	64	144	4
TAP	64	240	0
TAP	64	288	1
TAP	64	288	7
HLD	65	0	1	72
HLD	65	72	2	72
TAP	65	144	3
TAP	65	240	7
TAP	65	288	0
TAP	65	288	6
HLD	66	0	6	72
HLD	66	72	5	72
TAP	66	144	4
TAP	66	240	0
TAP	66	288	1
TAP	66	288	7
HLD	67	0	2	72
HLD	67	72	1	72
TAP	67	144	0
TAP	67	240	5
TAP	67	288	4
TAP	67	288	6
HLD	68	0	5	72
HLD	68	72	6	72
TAP	68	144	7
TAP	68	240	2
TAP	68	288	1
TAP	68	288	3
HLD	69	0	0	72
HLD	69	72	2	72
TAP	69	144	4
TAP	69	240	6
TAP	69	240	7
TAP	69	288	0
TAP	69	288	5
HLD	70	0	7	72
HLD	70	72	5	72
TAP	70	144	3
TAP	70	240	0
TAP	70	240	1
TAP	70	288	2
TAP	70	288	7
STR	71	0	4
SI_	71	0	4	96	48	1
STR	71	0	5
SI_	71	0	5	96	48	0
STR	71	192	2
SI_	71	192	2	96	48	7
STR	71	192	3
SI_	71	192	3	96	48	6
STR	72	0	4
SUR	72	0	4	96	48	1
STR	72	0	5
SCR	72	0	5	96	48	0
STR	72	192	2
SCL	72	192	2	96	48	7
STR	72	192	3
SUL	72	192	3	96	48	6
STR	73	0	4
SF_	73	0	4	96	48	0
STR	73	192	3
SF_	73	192	3	96	48	7
STR	74	0	4
SF_	74	0	4	96	48	0
TAP	74	192	2
TAP	74	192	5
TAP	74	288	0
TAP	74	288	7
BST	74	336	0
SI_	74	336	0	96	48	4
BST	74	336	7
SI_	74	336	7	96	48	3

T_REC_TAP	283
T_REC_BRK	8
T_REC_XTP	0
T_REC_HLD	38
T_REC_XHO	0
T_REC_STR	58
T_REC_BST	6
T_REC_XST	0
T_REC_TTP	0
T_REC_THO	0
T_REC_SLD	64
T_REC_ALL	457
T_NUM_TAP	341
T_NUM_BRK	14
T_NUM_HLD	38
T_NUM_SLD	64
T_NUM_ALL	457
T_JUDGE_TAP	355
T_JUDGE_HLD	76
T_JUDGE_SLD	64
T_JUDGE_ALL	495
TTM_EACHPAIRS	112
TTM_SCR_TAP	170500
TTM_SCR_BRK	36400
TTM_SCR_HLD	38000
TTM_SCR_SLD	96000
TTM_SCR_ALL	340900
TTM_SCR_S	329350
TTM_SCR_SS	339500
TTM_RAT_ACV	10041

