VERSION	0.00.00	1.03.00
FES_MODE	0
BPM_DEF	150.000	150.000	150.000	150.000
MET_DEF	4	4
RESOLUTION	384
CLK_DEF	384
COMPATIBLE_CODE	MA2

BPM	0	0	150.000
MET	0	0	4	4

TAP	5	0	2
TAP	5	96	3
TAP	5	192	2
TAP	6	0	5
TAP	6	96	4
TAP	6	192	5
TAP	7	0	0
TAP	7	96	7
TAP	7	192	0
TAP	8	0	0
TAP	8	0	7
TAP	8	96	0
TAP	8	96	7
TAP	9	0	2
TAP	9	96	2
TAP	9	192	3
TAP	9	288	3
TAP	10	0	2
TAP	10	96	3
TAP	10	192	1
TAP	10	192	4
TAP	11	0	0
TAP	11	96	0
TAP	11	192	7
TAP	11	288	7
TAP	12	0	0
TAP	12	0	7
TAP	12	96	1
TAP	12	96	6
TAP	12	192	2
TAP	12	192	5
TAP	12	288	3
TAP	12	288	4
TAP	13	0	5
TAP	13	96	5
TAP	13	192	4
TAP	13	288	4
TAP	14	0	5
TAP	14	96	4
TAP	14	192	3
TAP	14	192	6
TAP	15	0	7
TAP	15	96	7
TAP	15	192	0
TAP	15	288	0
TAP	16	0	0
TAP	16	0	7
TAP	16	96	1
TAP	16	96	6
TAP	16	192	2
TAP	16	192	5
TAP	16	288	3
TAP	16	288	4
HLD	17	0	2	192
TAP	17	192	3
TAP	17	288	1
TAP	17	288	4
HLD	18	0	5	192
TAP	18	192	4
TAP	18	288	3
TAP	18	288	6
HLD	19	0	2	192
TAP	19	192	3
TAP	19	288	1
TAP	19	288	4
TAP	20	0	5
TAP	20	96	4
TAP	20	96	6
TAP	20	192	2
TAP	20	288	1
TAP	20	288	3
HLD	21	0	6	192
TAP	21	192	7
TAP	21	288	0
TAP	21	288	5
HLD	22	0	1	192
TAP	22	192	0
TAP	22	288	2
TAP	22	288	7
HLD	23	0	6	192
TAP	23	192	7
TAP	23	288	0
TAP	23	288	5
TAP	24	0	1
TAP	24	96	0
TAP	24	96	2
TAP	24	192	6
TAP	24	288	5
TAP	24	288	7
STR	25	0	0
SI_	25	0	0	96	96	3
STR	25	0	7
SI_	25	0	7	96	96	4
BRK	26	0	1
BRK	26	0	6
TAP	27	0	2
TAP	27	96	2
TAP	27	96	3
TAP	27	192	5
TAP	27	288	4
TAP	27	288	5
TAP	28	0	2
TAP	28	96	1
TAP	28	96	3
TAP	28	192	5
TAP	28	288	4
TAP	28	288	6
TAP	29	0	1
TAP	29	96	0
TAP	29	96	2
TAP	29	192	6
TAP	29	288	5
TAP	29	288	7
STR	30	0	0
SI_	30	0	0	96	96	3
STR	30	0	7
SI_	30	0	7	96	96	4
HLD	31	0	2	96
TAP	31	96	3
TAP	31	192	1
TAP	31	192	4
HLD	32	0	5	96
TAP	32	96	4
TAP	32	192	3
TAP	32	192	6
TAP	33	0	2
TAP	33	96	1
TAP	33	192	0
TAP	33	288	7
TAP	34	0	6
TAP	34	96	5
TAP	34	192	3
TAP	34	192	4
TAP	35	0	1
TAP	35	96	0
TAP	35	96	1
TAP	35	192	6
TAP	35	288	6
TAP	35	288	7
TAP	36	0	1
TAP	36	96	0
TAP	36	96	2
TAP	36	192	6
TAP	36	288	5
TAP	36	288	7
TAP	37	0	0
TAP	37	0	1
TAP	37	96	2
TAP	37	96	7
TAP	37	192	6
TAP	37	192	7
TAP	37	288	0
TAP	37	288	5
BRK	38	0	0
BRK	38	0	7
TAP	39	0	6
TAP	39	96	5
TAP	39	192	4
TAP	39	288	3
TAP	40	0	2
TAP	40	96	1
TAP	40	192	0
TAP	40	192	7
TAP	40	288	0
TAP	40	288	7
STR	41	0	0
SCR	41	0	0	96	192	3
STR	41	0	7
SCL	41	0	7	96	192	4
STR	43	0	2
SCL	43	0	2	96	192	7
STR	43	0	3
SCR	43	0	3	96	192	6
STR	45	0	4
SCL	45	0	4	96	192	1
STR	45	0	5
SCR	45	0	5	96	192	0
BST	47	0	3
SI_	47	0	3	96	96	0
BST	47	0	4
SI_	47	0	4	96	96	7
TAP	48	0	1
TAP	48	0	6
HLD	49	0	2	96
TAP	49	96	3
HLD	49	192	5	96
TAP	49	288	4
HLD	50	0	1	96
TAP	50	96	2
HLD	50	192	6	96
TAP	50	288	5
HLD	51	0	1	96
TAP	51	96	0
HLD	51	192	6	96
TAP	51	288	7
HLD	52	0	2	96
TAP	52	96	0
HLD	52	192	5	96
TAP	52	288	7
TAP	53	0	0
TAP	53	0	1
TAP	53	96	0
TAP	53	96	1
TAP	53	192	2
TAP	53	192	3
TAP	53	288	2
TAP	53	288	3
TAP	54	0	4
TAP	54	0	5
TAP	54	96	4
TAP	54	96	5
TAP	54	192	6
TAP	54	192	7
TAP	54	288	6
TAP	54	288	7
TAP	55	0	0
STR	55	0	1
SI_	55	0	1	96	96	4
STR	55	192	6
SI_	55	192	6	96	96	3
STR	56	0	2
SCL	56	0	2	96	144	7
HLD	57	0	6	96
HLD	57	96	5	96
TAP	57	192	4
TAP	57	288	3
TAP	57	288	5
HLD	58	0	1	96
HLD	58	96	2	96
TAP	58	192	3
TAP	58	288	2
TAP	58	288	4
HLD	59	0	5	96
HLD	59	96	6	96
TAP	59	192	7
TAP	59	288	0
TAP	59	288	6
HLD	60	0	2	96
HLD	60	96	1	96
TAP	60	192	0
TAP	60	288	1
TAP	60	288	7
TAP	61	0	6
TAP	61	0	7
TAP	61	96	6
TAP	61	96	7
TAP	61	192	4
TAP	61	192	5
TAP	61	288	4
TAP	61	288	5
TAP	62	0	2
TAP	62	0	3
TAP	62	96	2
TAP	62	96	3
TAP	62	192	0
TAP	62	192	1
TAP	62	288	0
TAP	62	288	1
STR	63	0	6
SI_	63	0	6	96	96	3
TAP	63	0	7
STR	63	192	1
SI_	63	192	1	96	96	4
STR	64	0	5
SCR	64	0	5	96	144	0
TAP	65	0	2
TAP	65	96	2
TAP	65	96	3
TAP	65	192	5
TAP	65	288	4
TAP	65	288	5
TAP	66	0	1
TAP	66	96	0
TAP	66	96	1
TAP	66	192	6
TAP	66	288	6
TAP	66	288	7
TAP	67	0	5
TAP	67	96	4
TAP	67	96	6
TAP	67	192	2
TAP	67	288	1
TAP	67	288	3
TAP	68	0	6
TAP	68	96	5
TAP	68	96	7
TAP	68	192	1
TAP	68	288	0
TAP	68	288	2
TAP	69	0	4
TAP	69	0	5
TAP	69	96	3
TAP	69	96	6
TAP	69	192	2
TAP	69	192	3
TAP	69	288	1
TAP	69	288	4
TAP	70	0	6
TAP	70	0	7
TAP	70	96	0
TAP	70	96	5
TAP	70	192	0
TAP	70	192	1
TAP	70	288	2
TAP	70	288	7
HLD	71	0	0	192
HLD	71	192	1	192
HLD	72	0	2	192
TAP	72	192	3
TAP	72	288	1
TAP	72	288	4
HLD	73	0	7	192
HLD	73	192	6	192
HLD	74	0	5	192
TAP	74	192	4
TAP	74	288	3
TAP	74	288	6

T_REC_TAP	247
T_REC_BRK	4
T_REC_XTP	0
T_REC_HLD	30
T_REC_XHO	0
T_REC_STR	16
T_REC_BST	2
T_REC_XST	0
T_REC_TTP	0
T_REC_THO	0
T_REC_SLD	18
T_REC_ALL	317
T_NUM_TAP	263
T_NUM_BRK	6
T_NUM_HLD	30
T_NUM_SLD	18
T_NUM_ALL	317
T_JUDGE_TAP	269
T_JUDGE_HLD	84
T_JUDGE_SLD	18
T_JUDGE_ALL	371
TTM_EACHPAIRS	90
TTM_SCR_TAP	131500
TTM_SCR_BRK	15600
TTM_SCR_HLD	30000
TTM_SCR_SLD	27000
TTM_SCR_ALL	204100
TTM_SCR_S	197400
TTM_SCR_SS	203500
TTM_RAT_ACV	10029

