VERSION	0.00.00	1.03.00
FES_MODE	0
BPM_DEF	150.000	150.000	150.000	150.000
MET_DEF	4	4
RESOLUTION	384
CLK_DEF	384
COMPATIBLE_CODE	MA2

BPM	0	0	150.000
MET	0	0	4	4

TAP	1	0	3
TAP	1	192	3
TAP	2	0	3
TAP	2	192	3
TAP	3	0	4
TAP	3	192	4
TAP	4	0	4
TAP	4	192	4
TAP	5	0	3
TAP	5	96	3
TAP	5	192	3
TAP	6	0	4
TAP	6	96	4
TAP	6	192	4
TAP	7	0	3
TAP	7	96	3
TAP	7	192	2
TAP	7	192	3
TAP	8	0	4
TAP	8	96	4
TAP	8	192	4
TAP	8	192	5
TAP	9	0	3
TAP	9	96	3
TAP	9	192	2
TAP	9	288	2
TAP	10	0	1
TAP	10	96	1
TAP	10	192	0
TAP	10	192	1
TAP	11	0	7
TAP	11	96	7
TAP	11	192	6
TAP	11	288	6
TAP	12	0	4
TAP	12	0	5
TAP	12	96	4
TAP	12	96	5
TAP	12	192	2
TAP	12	192	3
TAP	12	288	2
TAP	12	288	3
TAP	13	0	4
TAP	13	96	4
TAP	13	192	5
TAP	13	288	5
TAP	14	0	6
TAP	14	96	6
TAP	14	192	6
TAP	14	192	7
TAP	15	0	0
TAP	15	96	0
TAP	15	192	1
TAP	15	288	1
TAP	16	0	2
TAP	16	0	3
TAP	16	96	2
TAP	16	96	3
TAP	16	192	4
TAP	16	192	5
TAP	16	288	4
TAP	16	288	5
STR	17	0	6
SI_	17	0	6	96	288	3
STR	19	0	1
SI_	19	0	1	96	288	4
STR	21	0	7
SI_	21	0	7	96	288	3
STR	23	0	0
SI_	23	0	0	96	288	4
TAP	25	0	0
TAP	25	0	7
HLD	26	0	1	144
HLD	26	0	6	144
TAP	27	0	2
TAP	27	96	2
TAP	27	192	3
TAP	27	288	3
TAP	28	0	4
TAP	28	96	4
TAP	28	192	5
TAP	28	288	5
TAP	29	0	6
TAP	29	0	7
TAP	29	192	6
TAP	29	192	7
HLD	30	0	0	192
TAP	31	0	7
TAP	31	96	7
TAP	31	192	6
TAP	31	288	6
TAP	32	0	5
TAP	32	96	5
TAP	32	192	4
TAP	32	288	4
HLD	33	0	2	192
HLD	33	0	3	192
HLD	34	0	4	192
HLD	34	0	5	192
TAP	35	0	5
TAP	35	96	5
TAP	35	192	4
TAP	35	288	4
TAP	36	0	3
TAP	36	96	3
TAP	36	192	2
TAP	36	288	2
TAP	37	0	0
TAP	37	0	1
TAP	37	192	0
TAP	37	192	1
HLD	38	0	7	192
TAP	39	0	0
TAP	39	96	0
TAP	39	192	1
TAP	39	288	1
TAP	40	0	2
TAP	40	96	2
TAP	40	192	3
TAP	40	288	3
STR	41	0	4
SI_	41	0	4	96	288	7
STR	43	0	3
SI_	43	0	3	96	288	0
STR	45	0	7
SI_	45	0	7	96	288	4
STR	47	0	0
SI_	47	0	0	96	288	3
TAP	49	0	4
TAP	49	96	4
TAP	49	192	5
TAP	49	288	5
TAP	50	0	4
TAP	50	96	4
TAP	50	192	3
TAP	50	288	3
TAP	51	0	2
TAP	51	96	2
TAP	51	192	3
TAP	51	288	3
HLD	52	0	4	192
HLD	52	0	5	192
TAP	53	0	6
TAP	53	96	6
TAP	53	192	7
TAP	53	288	7
TAP	54	0	0
TAP	54	96	0
TAP	54	192	1
TAP	54	288	1
TAP	55	0	0
TAP	55	96	0
TAP	55	192	7
TAP	55	288	7
TAP	56	0	6
TAP	56	96	6
TAP	56	192	6
TAP	56	192	7
TAP	57	0	5
TAP	57	96	4
TAP	57	192	5
TAP	58	0	2
TAP	58	96	3
TAP	58	192	2
TAP	59	0	3
TAP	59	96	4
TAP	59	192	3
TAP	59	288	4
HLD	60	0	2	192
HLD	60	0	5	192
TAP	61	0	6
TAP	61	96	6
TAP	61	192	7
TAP	61	288	7
TAP	62	0	0
TAP	62	96	0
TAP	62	192	1
TAP	62	288	1
BRK	63	0	2
BRK	63	0	3
TAP	64	0	2
TAP	64	0	3
TAP	65	0	4
TAP	65	0	5
TAP	66	0	4
TAP	66	0	5
TAP	67	0	4
TAP	67	96	4
TAP	67	192	3
TAP	67	192	5
TAP	68	0	3
TAP	68	96	3
TAP	68	192	2
TAP	68	192	4
TAP	69	0	5
TAP	69	96	5
TAP	69	192	4
TAP	69	192	6
TAP	70	0	2
TAP	70	96	2
TAP	70	192	1
TAP	70	192	3
TAP	71	0	0
TAP	71	96	0
TAP	71	192	0
TAP	71	192	7
TAP	72	0	6
TAP	72	96	6
TAP	72	192	6
TAP	72	192	7
TAP	73	0	4
TAP	73	96	4
TAP	73	192	3
TAP	73	192	4
TAP	74	0	3
TAP	74	96	4
HLD	74	192	2	144
HLD	74	192	5	144

T_REC_TAP	186
T_REC_BRK	2
T_REC_XTP	0
T_REC_HLD	14
T_REC_XHO	0
T_REC_STR	8
T_REC_BST	0
T_REC_XST	0
T_REC_TTP	0
T_REC_THO	0
T_REC_SLD	8
T_REC_ALL	218
T_NUM_TAP	194
T_NUM_BRK	2
T_NUM_HLD	14
T_NUM_SLD	8
T_NUM_ALL	218
T_JUDGE_TAP	196
T_JUDGE_HLD	52
T_JUDGE_SLD	8
T_JUDGE_ALL	256
TTM_EACHPAIRS	35
TTM_SCR_TAP	97000
TTM_SCR_BRK	5200
TTM_SCR_HLD	14000
TTM_SCR_SLD	12000
TTM_SCR_ALL	128200
TTM_SCR_S	124200
TTM_SCR_SS	128000
TTM_RAT_ACV	10015

