VERSION	0.00.00	1.03.00
FES_MODE	0
BPM_DEF	132.000	132.000	132.000	132.000
MET_DEF	4	4
RESOLUTION	384
CLK_DEF	384
COMPATIBLE_CODE	MA2

BPM	0	0	132.000
MET	0	0	4	4

HLD	1	0	1	336
HLD	1	144	3	336
HLD	2	0	4	336
HLD	2	144	6	336
HLD	3	0	0	336
HLD	3	144	4	192
STR	4	0	0
SXL	4	0	0	96	480	3
STR	4	0	4
SXL	4	0	4	96	480	7
TAP	6	0	2
TAP	6	0	3
TAP	6	48	3
TAP	6	48	4
TAP	6	96	4
TAP	6	96	5
TAP	6	144	6
TAP	6	168	7
TAP	6	216	7
TAP	6	240	0
TAP	6	288	0
TAP	6	288	1
TAP	6	336	2
TAP	6	336	7
TAP	7	0	4
TAP	7	0	5
TAP	7	48	3
TAP	7	48	4
TAP	7	96	2
TAP	7	96	3
TAP	7	144	1
TAP	7	168	0
TAP	7	216	0
TAP	7	240	7
TAP	7	288	6
TAP	7	288	7
TAP	7	336	5
TAP	7	360	4
TAP	8	0	3
TAP	8	0	6
TAP	8	48	2
TAP	8	48	5
TAP	8	96	1
TAP	8	96	4
TAP	8	144	0
TAP	8	168	7
TAP	8	216	7
TAP	8	240	6
TAP	8	288	0
TAP	8	288	5
TAP	8	336	2
TAP	8	336	7
TAP	9	0	1
TAP	9	0	4
TAP	9	48	2
TAP	9	48	5
TAP	9	96	3
TAP	9	96	6
TAP	9	144	7
TAP	9	168	0
TAP	9	216	0
TAP	9	240	1
TAP	9	288	2
TAP	9	288	7
TAP	9	336	2
TAP	9	360	3
TAP	10	0	1
STR	10	0	4
SI_	10	0	4	96	24	0
TAP	10	96	4
TAP	10	96	6
TAP	10	144	7
TAP	10	168	7
TAP	10	216	0
TAP	10	240	0
TAP	10	288	2
TAP	10	288	5
TAP	10	336	1
TAP	10	360	0
HLD	11	0	2	48
HLD	11	0	7	48
HLD	11	72	0	48
HLD	11	72	5	48
BRK	11	144	1
BRK	11	144	6
TAP	11	216	4
TAP	11	240	3
TAP	11	264	4
TAP	11	288	2
TAP	11	312	5
TAP	11	336	1
TAP	11	360	6
STR	12	0	0
SCR	12	0	0	96	24	3
TAP	12	24	0
TAP	12	72	0
TAP	12	72	7
TAP	12	120	5
TAP	12	144	5
TAP	12	168	4
STR	12	192	7
SCL	12	192	7	96	24	4
TAP	12	216	7
TAP	12	264	0
TAP	12	264	7
TAP	12	360	0
TAP	12	360	7
TAP	13	24	2
TAP	13	48	3
TAP	13	72	2
TAP	13	96	1
TAP	13	96	4
TAP	13	144	5
TAP	13	168	4
TAP	13	192	5
TAP	13	216	3
TAP	13	216	6
TAP	13	264	0
TAP	13	264	7
TAP	13	312	1
TAP	13	336	0
STR	13	360	2
SCR	13	360	2	96	24	5
HLD	14	0	2	72
TAP	14	120	6
TAP	14	144	7
STR	14	168	5
SCL	14	168	5	96	24	2
HLD	14	192	5	72
TAP	14	360	3
TAP	14	360	4
TAP	15	0	3
TAP	15	0	4
TAP	15	48	2
TAP	15	72	3
TAP	15	96	1
TAP	15	96	4
TAP	15	144	5
TAP	15	168	4
TAP	15	192	3
TAP	15	192	6
TAP	15	240	0
TAP	15	264	7
TAP	15	288	1
TAP	15	288	6
TAP	15	336	3
TAP	15	336	4
STR	16	0	0
SI_	16	0	0	96	24	5
STR	16	0	7
SI_	16	0	7	96	24	2
TAP	16	48	2
TAP	16	48	5
TAP	16	96	0
TAP	16	96	7
TAP	16	168	0
TAP	16	168	1
TAP	16	192	2
TAP	16	192	7
TAP	16	240	3
TAP	16	264	4
TAP	16	288	2
TAP	16	288	5
TAP	16	360	6
TAP	16	360	7
TAP	17	0	0
TAP	17	0	5
TAP	17	48	4
TAP	17	72	3
TAP	17	96	2
TAP	17	96	5
TAP	17	144	1
TAP	17	144	6
STR	17	192	0
SI_	17	192	0	96	24	4
TAP	17	216	4
TAP	17	240	2
TAP	17	264	6
TAP	17	288	0
TAP	18	0	3
TAP	18	0	4
TAP	18	48	6
TAP	18	72	6
STR	18	96	1
SI_	18	96	1	96	24	5
TAP	18	120	1
TAP	18	192	1
STR	18	192	6
SI_	18	192	6	96	24	2
TAP	18	240	7
STR	18	288	1
SLR	18	288	1	96	48	7
TAP	18	288	6
TAP	18	336	0
TAP	19	0	1
STR	19	0	6
SLL	19	0	6	96	48	0
TAP	19	96	6
STR	19	96	7
SF_	19	96	7	96	24	3
BRK	19	192	7
TAP	20	0	1
TAP	20	0	5
STR	20	48	6
SI_	20	48	6	96	24	0
STR	20	72	0
SI_	20	72	0	96	24	4
STR	20	96	4
SI_	20	96	4	96	24	2
TAP	20	240	1
TAP	20	288	0
TAP	20	288	2
TAP	20	336	6
TAP	21	0	5
TAP	21	0	7
STR	21	48	6
SV_	21	48	6	96	24	1
STR	21	72	1
SCL	21	72	1	96	24	6
STR	21	96	6
SCL	21	96	6	96	24	3
TAP	21	240	2
TAP	21	288	1
TAP	21	288	3
TAP	21	336	5
TAP	22	0	4
TAP	22	0	6
STR	22	48	7
SI_	22	48	7	96	48	4
SSR	22	48	7	96	48	3
TAP	22	72	7
TAP	22	96	7
TAP	22	240	2
TAP	22	288	0
TAP	22	288	4
TAP	22	336	5
STR	23	0	3
SCL	23	0	3	96	24	0
STR	23	0	7
SCL	23	0	7	96	24	4
TAP	23	72	3
TAP	23	72	7
TAP	23	144	3
TAP	23	144	7
TAP	23	192	1
TAP	23	192	5
TAP	23	240	0
TAP	23	246	1
TAP	23	252	2
TAP	23	258	3
TAP	23	264	4
TAP	23	270	5
TAP	23	276	6
TAP	23	282	7
BRK	23	288	0
TAP	24	0	2
STR	24	0	4
SI_	24	0	4	96	24	0
TAP	24	48	3
TAP	24	48	5
TAP	24	96	4
TAP	24	96	6
TAP	24	144	7
TAP	24	168	1
TAP	24	216	1
TAP	24	240	3
TAP	24	288	3
TAP	24	288	5
TAP	24	336	1
TAP	24	336	3
STR	25	0	3
SI_	25	0	3	96	24	7
TAP	25	0	5
TAP	25	48	2
TAP	25	48	4
TAP	25	96	1
TAP	25	96	3
TAP	25	144	0
TAP	25	168	6
TAP	25	216	6
TAP	25	240	4
TAP	25	288	2
TAP	25	288	4
TAP	25	336	4
TAP	25	336	6
STR	26	0	1
SI_	26	0	1	96	24	5
TAP	26	0	3
TAP	26	48	0
TAP	26	96	1
STR	26	96	7
SI_	26	96	7	96	24	3
TAP	26	144	6
STR	26	192	0
SI_	26	192	0	96	24	4
TAP	26	192	7
TAP	26	240	1
TAP	26	288	0
STR	26	288	6
SI_	26	288	6	96	24	2
TAP	26	336	7
STR	27	0	0
SF_	27	0	0	96	24	4
TAP	27	0	6
TAP	27	48	1
TAP	27	96	0
TAP	27	144	6
TAP	27	168	4
STR	27	216	1
SI_	27	216	1	96	24	5
TAP	27	240	3
BRK	27	288	7
TAP	28	0	4
TAP	28	0	6
TAP	28	48	2
TAP	28	48	4
TAP	28	96	4
TAP	28	96	6
TAP	28	144	1
TAP	28	168	3
TAP	28	216	6
TAP	28	240	4
TAP	28	288	0
TAP	28	288	7
TAP	28	360	6
TAP	29	0	7
TAP	29	48	3
TAP	29	48	4
TAP	29	96	1
TAP	29	120	0
HLD	29	168	2	48
HLD	29	168	6	48
TAP	29	240	2
TAP	29	240	6
STR	29	288	0
SCR	29	288	0	96	24	3
STR	29	336	0
SCL	29	336	0	96	24	5
STR	30	0	0
SI_	30	0	0	96	24	4
TAP	30	144	5
TAP	30	168	7
TAP	30	216	2
TAP	30	240	0
TAP	30	288	6
TAP	30	312	3
TAP	30	336	4
TAP	30	360	1
HLD	31	0	2	48
HLD	31	0	3	48
HLD	31	72	4	48
HLD	31	72	5	48
BRK	31	144	0
BRK	31	144	7
TAP	31	240	3
TAP	31	264	7
TAP	31	288	3
TAP	31	312	6
TAP	31	336	3
TAP	31	360	5
STR	32	0	3
SI_	32	0	3	96	24	7
TAP	32	48	2
TAP	32	48	4
TAP	32	96	1
TAP	32	96	3
TAP	32	144	0
TAP	32	168	6
TAP	32	216	6
TAP	32	240	4
TAP	32	288	2
TAP	32	288	4
TAP	32	336	4
TAP	32	336	6
TAP	33	0	2
STR	33	0	4
SI_	33	0	4	96	24	0
TAP	33	48	3
TAP	33	48	5
TAP	33	96	4
TAP	33	96	6
TAP	33	144	7
TAP	33	168	1
TAP	33	216	1
TAP	33	240	3
TAP	33	288	1
TAP	33	288	3
TAP	33	336	3
TAP	33	336	5
TAP	34	0	4
STR	34	0	6
SI_	34	0	6	96	24	2
TAP	34	48	7
STR	34	96	0
SI_	34	96	0	96	24	4
TAP	34	96	6
TAP	34	144	1
TAP	34	192	0
STR	34	192	7
SI_	34	192	7	96	24	3
TAP	34	240	6
TAP	34	288	1
TAP	34	288	7
STR	34	336	2
SXR	34	336	2	96	96	4
TAP	35	48	4
TAP	35	96	5
TAP	35	144	6
STR	35	192	7
SI_	35	192	7	96	24	3
TAP	35	240	4
BRK	35	288	0
TAP	36	0	1
TAP	36	0	3
TAP	36	48	3
TAP	36	48	5
TAP	36	96	1
TAP	36	96	3
TAP	36	144	6
TAP	36	168	4
TAP	36	216	1
TAP	36	240	3
TAP	36	288	0
TAP	36	288	7
TAP	36	360	1
TAP	37	0	0
TAP	37	48	2
TAP	37	48	5
TAP	37	96	6
TAP	37	120	7
HLD	37	168	1	48
HLD	37	168	5	48
TAP	37	240	1
TAP	37	240	5
STR	37	288	7
SCR	37	288	7	96	48	2
STR	37	336	2
SCR	37	336	2	96	48	5
STR	38	0	5
SCR	38	0	5	96	24	7
TAP	38	144	2
TAP	38	168	0
TAP	38	216	5
TAP	38	240	7
TAP	38	288	3
TAP	38	288	4
TAP	38	312	3
TAP	38	312	4
TAP	38	336	3
TAP	38	336	4
HLD	38	360	3	264
HLD	38	360	4	264
BRK	39	288	1
BRK	39	288	6
TAP	40	240	4
TAP	40	240	6
BRK	40	288	0
STR	40	336	3
SXR	40	336	3	96	96	3
STR	40	336	7
SXR	40	336	7	96	96	7
TAP	40	360	3
TAP	40	360	7
TAP	41	0	3
TAP	41	0	7
TAP	41	192	0
TAP	41	240	2
TAP	41	288	6
STR	41	336	4
SCR	41	336	4	96	192	3
TAP	42	48	0
HLD	42	96	0	192
TAP	42	288	4
STR	42	336	4
SLL	42	336	4	96	96	0
STR	43	48	0
SLL	43	48	0	96	96	4
STR	43	144	4
SCL	43	144	4	96	96	0
STR	43	240	0
SCL	43	240	0	96	96	4
STR	43	336	4
SSL	43	336	4	96	144	0
TAP	44	240	3
TAP	44	240	7
TAP	44	288	1
TAP	44	288	5
TAP	45	0	3
TAP	45	24	4
TAP	45	48	2
TAP	45	72	4
TAP	45	96	3
TAP	45	120	4
STR	45	144	1
SI_	45	144	1	96	24	5
TAP	45	168	1
STR	45	216	7
SI_	45	216	7	96	24	3
TAP	45	240	7
TAP	45	288	0
TAP	46	0	4
TAP	46	24	3
TAP	46	48	5
TAP	46	72	3
TAP	46	96	4
TAP	46	120	3
STR	46	144	6
SI_	46	144	6	96	24	2
TAP	46	168	6
STR	46	216	0
SI_	46	216	0	96	24	4
TAP	46	240	0
TAP	46	288	7
TAP	47	0	1
TAP	47	24	3
TAP	47	48	1
TAP	47	72	3
TAP	47	96	2
TAP	47	120	4
TAP	47	144	2
TAP	47	168	4
TAP	47	192	3
TAP	47	216	5
TAP	47	240	3
TAP	47	264	5
TAP	47	288	4
TAP	47	312	6
TAP	47	336	4
TAP	47	360	6
HLD	48	0	5	48
HLD	48	0	7	48
HLD	48	72	0	48
HLD	48	72	2	48
BST	48	144	1
SLR	48	144	1	96	72	0
BST	48	144	6
SLL	48	144	6	96	72	7
STR	49	0	3
SI_	49	0	3	96	24	7
TAP	49	0	5
TAP	49	48	2
TAP	49	48	4
TAP	49	96	1
TAP	49	96	3
TAP	49	144	0
TAP	49	168	6
TAP	49	216	6
TAP	49	240	4
TAP	49	288	2
TAP	49	288	4
TAP	49	336	4
TAP	49	336	6
TAP	50	0	2
STR	50	0	4
SI_	50	0	4	96	24	0
TAP	50	48	3
TAP	50	48	5
TAP	50	96	4
TAP	50	96	6
TAP	50	144	7
TAP	50	168	1
TAP	50	216	1
TAP	50	240	3
TAP	50	288	3
TAP	50	288	5
TAP	50	336	1
TAP	50	336	3
TAP	51	0	4
STR	51	0	6
SI_	51	0	6	96	24	2
TAP	51	48	7
STR	51	96	0
SI_	51	96	0	96	24	4
TAP	51	96	6
TAP	51	144	1
TAP	51	192	0
STR	51	192	7
SI_	51	192	7	96	24	3
TAP	51	240	6
STR	51	288	1
SI_	51	288	1	96	24	5
TAP	51	288	7
TAP	51	336	0
TAP	52	0	1
STR	52	0	7
SF_	52	0	7	96	24	3
TAP	52	48	6
TAP	52	96	7
TAP	52	144	1
TAP	52	168	3
STR	52	216	6
SI_	52	216	6	96	24	2
TAP	52	240	4
BRK	52	288	0
TAP	53	0	1
TAP	53	0	3
TAP	53	48	3
TAP	53	48	5
TAP	53	96	1
TAP	53	96	3
TAP	53	144	6
TAP	53	168	4
TAP	53	216	1
TAP	53	240	3
TAP	53	288	0
TAP	53	288	7
TAP	53	360	1
TAP	54	0	0
TAP	54	48	3
TAP	54	48	4
TAP	54	96	6
TAP	54	120	7
HLD	54	168	1	48
HLD	54	168	5	48
TAP	54	240	1
TAP	54	240	5
STR	54	288	7
SCL	54	288	7	96	24	4
STR	54	336	7
SCR	54	336	7	96	24	2
STR	55	0	7
SI_	55	0	7	96	24	3
TAP	55	144	2
TAP	55	168	0
TAP	55	216	5
TAP	55	240	7
TAP	55	288	1
TAP	55	312	4
TAP	55	336	3
TAP	55	360	6
HLD	56	0	4	48
HLD	56	0	5	48
HLD	56	72	2	48
HLD	56	72	3	48
BRK	56	144	0
BRK	56	144	7
TAP	56	240	4
TAP	56	264	0
TAP	56	288	4
TAP	56	312	1
TAP	56	336	4
TAP	56	360	2
STR	57	0	4
SI_	57	0	4	96	24	0
TAP	57	48	3
TAP	57	48	5
TAP	57	96	4
TAP	57	96	6
TAP	57	144	7
TAP	57	168	1
TAP	57	216	1
TAP	57	240	3
TAP	57	288	3
TAP	57	288	5
TAP	57	336	1
TAP	57	336	3
STR	58	0	3
SI_	58	0	3	96	24	7
TAP	58	0	5
TAP	58	48	2
TAP	58	48	4
TAP	58	96	1
TAP	58	96	3
TAP	58	144	0
TAP	58	168	6
TAP	58	216	6
TAP	58	240	4
TAP	58	288	4
TAP	58	288	6
TAP	58	336	2
TAP	58	336	4
STR	59	0	1
SI_	59	0	1	96	24	5
TAP	59	0	3
TAP	59	48	0
TAP	59	96	1
STR	59	96	7
SI_	59	96	7	96	24	3
TAP	59	144	6
STR	59	192	0
SI_	59	192	0	96	24	4
TAP	59	192	7
TAP	59	240	1
TAP	59	288	0
TAP	59	288	6
STR	59	336	5
SXL	59	336	5	96	96	3
TAP	60	48	3
TAP	60	96	2
TAP	60	144	1
STR	60	192	0
SI_	60	192	0	96	24	4
TAP	60	240	3
BRK	60	288	7
TAP	61	0	4
TAP	61	0	6
TAP	61	48	2
TAP	61	48	4
TAP	61	96	4
TAP	61	96	6
TAP	61	144	1
TAP	61	168	3
TAP	61	216	6
TAP	61	240	4
TAP	61	288	0
TAP	61	288	7
TAP	62	0	3
STR	62	0	4
SI_	62	0	4	96	24	0
TAP	62	48	5
STR	62	96	3
SI_	62	96	3	96	24	7
TAP	62	96	4
TAP	62	144	2
TAP	62	192	3
TAP	62	192	4
TAP	62	240	5
STR	62	288	0
SCL	62	288	0	96	48	5
STR	62	336	5
SCL	62	336	5	96	48	2
STR	63	0	2
SCL	63	0	2	96	24	0
TAP	63	144	5
TAP	63	168	7
TAP	63	216	2
TAP	63	240	0
TAP	63	288	1
TAP	63	312	4
TAP	63	336	3
TAP	63	360	6
HLD	64	0	4	48
HLD	64	0	5	48
HLD	64	72	2	48
HLD	64	72	3	48
BST	64	144	1
SV_	64	144	1	96	24	3
BST	64	144	7
SV_	64	144	7	96	24	5
BRK	64	240	1
BRK	64	240	7
STR	65	0	1
SI_	65	0	1	96	24	4
TAP	65	48	1
TAP	65	72	1
STR	65	96	6
SI_	65	96	6	96	24	2
TAP	65	144	6
TAP	65	168	6
STR	65	192	0
SI_	65	192	0	96	24	5
TAP	65	240	0
TAP	65	264	0
STR	65	288	7
SI_	65	288	7	96	24	3
TAP	65	336	7
TAP	65	360	7
STR	66	0	2
SI_	66	0	2	96	24	7
TAP	66	48	2
TAP	66	72	2
STR	66	96	5
SI_	66	96	5	96	24	1
TAP	66	144	5
TAP	66	168	5
STR	66	192	0
SF_	66	192	0	96	24	4
TAP	66	240	0
TAP	66	264	0
STR	67	0	6
SI_	67	0	6	96	24	3
TAP	67	48	6
TAP	67	72	6
STR	67	96	1
SI_	67	96	1	96	24	5
TAP	67	144	1
TAP	67	168	1
STR	67	192	7
SI_	67	192	7	96	24	2
TAP	67	240	7
TAP	67	264	7
STR	67	288	0
SI_	67	288	0	96	24	4
TAP	67	336	0
TAP	67	360	0
STR	68	0	5
SI_	68	0	5	96	24	0
TAP	68	48	5
TAP	68	72	5
STR	68	96	2
SI_	68	96	2	96	24	6
TAP	68	144	2
TAP	68	168	2
STR	68	192	7
SF_	68	192	7	96	24	3
TAP	68	240	7
TAP	68	264	7
STR	69	0	2
SI_	69	0	2	96	24	7
TAP	69	48	2
TAP	69	72	2
STR	69	96	5
SI_	69	96	5	96	24	1
TAP	69	144	5
TAP	69	168	5
STR	69	192	0
SF_	69	192	0	96	24	4
TAP	69	240	0
TAP	69	264	0
STR	70	0	5
SI_	70	0	5	96	24	0
TAP	70	48	5
TAP	70	72	5
STR	70	96	2
SI_	70	96	2	96	24	6
TAP	70	144	2
TAP	70	168	2
STR	70	192	7
SF_	70	192	7	96	24	3
TAP	70	240	7
TAP	70	264	7
HLD	71	0	1	48
HLD	71	0	3	48
HLD	71	72	3	48
HLD	71	72	5	48
HLD	71	144	5	48
HLD	71	144	7	48
HLD	71	216	1	48
HLD	71	216	7	48
TAP	71	288	0
TAP	71	312	0
TAP	71	336	0
TAP	71	360	0
STR	72	0	4
SI_	72	0	4	96	24	0
TAP	72	48	2
TAP	72	48	6
TAP	72	96	7
TAP	72	120	7
TAP	72	144	7
BRK	72	168	7

T_REC_TAP	567
T_REC_BRK	18
T_REC_XTP	0
T_REC_HLD	45
T_REC_XHO	0
T_REC_STR	101
T_REC_BST	4
T_REC_XST	0
T_REC_TTP	0
T_REC_THO	0
T_REC_SLD	106
T_REC_ALL	841
T_NUM_TAP	668
T_NUM_BRK	22
T_NUM_HLD	45
T_NUM_SLD	106
T_NUM_ALL	841
T_JUDGE_TAP	690
T_JUDGE_HLD	93
T_JUDGE_SLD	106
T_JUDGE_ALL	889
TTM_EACHPAIRS	175
TTM_SCR_TAP	334000
TTM_SCR_BRK	57200
TTM_SCR_HLD	45000
TTM_SCR_SLD	159000
TTM_SCR_ALL	595200
TTM_SCR_S	575250
TTM_SCR_SS	593000
TTM_RAT_ACV	10037

