VERSION	0.00.00	1.03.00
FES_MODE	0
BPM_DEF	132.000	132.000	132.000	132.000
MET_DEF	4	4
RESOLUTION	384
CLK_DEF	384
COMPATIBLE_CODE	MA2

BPM	0	0	132.000

HLD	1	0	4	144
TAP	1	96	3
HLD	1	144	3	96
TAP	1	240	5
TAP	1	288	4
TAP	1	288	5
HLD	2	0	3	144
TAP	2	96	4
HLD	2	144	4	96
TAP	2	240	2
TAP	2	288	2
TAP	2	288	3
HLD	3	0	7	144
TAP	3	96	0
HLD	3	144	0	96
TAP	3	240	6
TAP	3	288	6
TAP	3	288	7
STR	4	0	0
SCR	4	0	0	96	480	7
TAP	6	0	3
TAP	6	0	4
TAP	6	48	2
TAP	6	96	0
TAP	6	96	1
TAP	6	144	7
TAP	6	168	0
TAP	6	216	6
TAP	6	240	7
TAP	6	288	0
TAP	6	288	5
TAP	7	0	3
TAP	7	0	4
TAP	7	48	5
TAP	7	96	6
TAP	7	96	7
TAP	7	144	0
TAP	7	168	7
TAP	7	216	1
TAP	7	240	0
TAP	7	288	2
TAP	7	288	7
TAP	8	0	0
TAP	8	0	7
TAP	8	48	6
TAP	8	96	4
TAP	8	96	5
TAP	8	144	3
TAP	8	168	4
TAP	8	216	2
TAP	8	240	3
TAP	8	288	1
TAP	8	288	4
TAP	9	0	0
TAP	9	0	7
TAP	9	48	1
TAP	9	96	2
TAP	9	96	3
TAP	9	144	4
TAP	9	168	3
TAP	9	216	5
TAP	9	240	4
TAP	9	288	3
TAP	9	288	6
STR	10	0	0
SI_	10	0	0	96	48	4
TAP	10	0	1
STR	10	96	3
SCL	10	96	3	96	96	5
BRK	11	0	3
BRK	11	0	4
BRK	11	72	3
BRK	11	72	4
BST	11	144	1
SXL	11	144	1	96	48	3
BST	11	144	6
SXR	11	144	6	96	48	4
TAP	12	0	3
TAP	12	24	3
TAP	12	72	2
TAP	12	72	4
TAP	12	192	4
TAP	12	216	4
TAP	12	264	3
TAP	12	264	5
HLD	13	0	6	48
HLD	13	48	5	48
HLD	13	96	4	48
HLD	13	144	3	48
STR	13	192	2
SI_	13	192	2	96	48	6
TAP	13	216	2
HLD	14	0	4	48
HLD	14	0	5	48
TAP	14	72	4
TAP	14	72	5
TAP	14	120	3
TAP	14	120	4
TAP	14	144	3
TAP	14	144	4
HLD	14	192	2	48
HLD	14	192	3	48
TAP	14	264	2
TAP	14	264	3
TAP	14	312	3
TAP	14	312	4
TAP	14	336	3
TAP	14	336	4
HLD	15	0	5	48
HLD	15	48	6	48
HLD	15	96	7	48
HLD	15	144	0	48
STR	15	192	1
SI_	15	192	1	96	48	4
SI_	15	192	1	96	48	5
HLD	16	0	6	96
TAP	16	0	7
TAP	16	48	0
TAP	16	96	1
HLD	16	192	0	48
HLD	16	192	7	48
TAP	16	264	1
TAP	16	264	6
HLD	17	0	0	48
HLD	17	48	1	48
HLD	17	96	2	48
HLD	17	144	3	48
STR	17	192	4
SI_	17	192	4	96	48	0
TAP	18	0	6
TAP	18	24	7
TAP	18	48	6
TAP	18	96	0
TAP	18	96	5
TAP	18	192	1
TAP	18	192	7
TAP	18	240	4
TAP	18	240	5
STR	18	288	2
SI_	18	288	2	96	48	7
TAP	18	288	3
BST	19	0	5
SI_	19	0	5	96	48	0
BST	19	96	2
SCL	19	96	2	96	96	5
BRK	19	192	7
HLD	20	0	0	72
HLD	20	0	1	72
TAP	20	96	0
TAP	20	96	1
STR	20	144	2
SLL	20	144	2	96	96	4
HLD	20	144	7	144
HLD	21	0	6	72
HLD	21	0	7	72
TAP	21	96	6
TAP	21	96	7
HLD	21	144	0	144
STR	21	144	5
SLR	21	144	5	96	96	3
HLD	22	0	3	72
HLD	22	0	4	72
TAP	22	96	3
TAP	22	96	4
STR	22	144	2
SLL	22	144	2	96	96	4
STR	22	144	5
SLR	22	144	5	96	96	3
TAP	23	0	4
TAP	23	0	5
TAP	23	72	2
TAP	23	72	3
STR	23	144	0
SSL	23	144	0	96	96	4
TAP	23	144	7
BRK	23	192	0
BRK	23	192	7
TAP	24	0	5
TAP	24	48	4
HLD	24	96	3	96
TAP	24	96	6
TAP	24	192	2
TAP	24	240	1
TAP	24	288	0
STR	24	336	7
SI_	24	336	7	96	48	3
TAP	25	48	1
HLD	25	96	1	96
TAP	25	192	0
TAP	25	216	1
TAP	25	240	0
TAP	25	288	0
TAP	25	288	1
TAP	25	336	2
HLD	25	336	7	336
TAP	26	48	5
TAP	26	96	5
TAP	26	144	3
TAP	26	192	3
TAP	26	240	1
TAP	26	288	1
STR	26	336	7
SI_	26	336	7	96	48	3
STR	27	48	0
SCR	27	48	0	96	144	7
TAP	28	0	0
TAP	28	48	1
TAP	28	48	7
TAP	28	96	2
TAP	28	96	6
TAP	28	144	5
TAP	28	168	4
TAP	28	216	3
TAP	28	240	4
TAP	28	288	1
TAP	28	288	6
TAP	29	0	4
TAP	29	48	3
TAP	29	48	5
TAP	29	96	2
TAP	29	96	6
TAP	29	144	1
TAP	29	168	0
TAP	29	216	7
TAP	29	240	0
STR	29	288	5
SI_	29	288	5	96	48	1
STR	30	0	3
SCL	30	0	3	96	192	4
TAP	31	0	4
TAP	31	0	5
TAP	31	48	3
TAP	31	72	4
TAP	31	96	3
TAP	31	144	2
STR	31	144	7
SI_	31	144	7	96	48	3
BRK	31	240	0
TAP	32	0	5
TAP	32	48	4
HLD	32	96	3	96
TAP	32	96	6
TAP	32	192	2
TAP	32	240	1
TAP	32	288	0
STR	32	336	7
SI_	32	336	7	96	48	3
TAP	33	48	1
HLD	33	96	1	96
TAP	33	192	0
TAP	33	216	1
TAP	33	240	0
TAP	33	288	2
TAP	33	288	7
HLD	34	0	1	192
TAP	34	48	2
TAP	34	96	3
TAP	34	144	4
HLD	34	192	5	144
TAP	34	240	6
TAP	34	288	7
HLD	34	336	0	240
TAP	35	48	1
TAP	35	96	2
TAP	35	144	3
TAP	35	192	4
TAP	35	240	3
TAP	35	240	5
BRK	35	288	2
BRK	35	288	6
TAP	36	0	7
TAP	36	48	0
TAP	36	48	6
TAP	36	96	1
TAP	36	96	5
TAP	36	144	2
TAP	36	168	3
TAP	36	216	4
TAP	36	240	3
TAP	36	288	1
TAP	36	288	5
TAP	37	0	2
TAP	37	0	6
TAP	37	48	4
TAP	37	48	5
TAP	37	96	3
TAP	37	120	4
TAP	37	144	3
HLD	37	168	4	120
TAP	37	240	5
BRK	37	288	0
TAP	38	0	1
TAP	38	0	7
TAP	38	48	2
TAP	38	96	3
TAP	38	96	6
TAP	38	144	4
TAP	38	192	3
TAP	38	192	5
TAP	38	240	6
STR	38	288	2
SSL	38	288	2	96	144	6
TAP	38	288	7
TAP	39	240	0
TAP	39	240	4
HLD	39	288	3	336
HLD	39	288	7	336
BRK	40	288	1
BRK	40	288	5
STR	41	0	1
SI_	41	0	1	96	48	4
STR	41	0	6
SI_	41	0	6	96	48	3
TAP	41	192	5
TAP	41	216	4
TAP	41	240	5
TAP	41	288	3
TAP	41	288	4
TAP	41	336	0
HLD	41	336	1	144
TAP	42	48	7
STR	42	96	7
SCL	42	96	7	96	48	4
TAP	42	192	3
TAP	42	240	2
TAP	42	288	1
HLD	42	336	0	336
TAP	42	336	7
TAP	43	48	2
TAP	43	96	2
TAP	43	144	4
TAP	43	192	4
TAP	43	240	6
TAP	43	288	6
STR	43	336	0
SI_	43	336	0	96	48	4
STR	44	48	5
SCL	44	48	5	96	48	2
TAP	44	240	0
TAP	44	288	7
TAP	44	336	6
TAP	45	0	4
TAP	45	0	5
TAP	45	48	2
TAP	45	48	3
TAP	45	96	3
TAP	45	96	4
TAP	45	144	2
TAP	45	168	3
TAP	45	216	5
TAP	45	240	4
TAP	45	288	1
TAP	45	288	6
TAP	46	0	2
TAP	46	0	3
TAP	46	48	4
TAP	46	48	5
TAP	46	96	3
TAP	46	96	4
TAP	46	144	5
TAP	46	168	4
TAP	46	216	2
TAP	46	240	3
STR	46	288	0
SXL	46	288	0	96	192	3
STR	46	288	7
SXR	46	288	7	96	192	4
TAP	47	288	2
TAP	47	288	5
BRK	48	0	4
BRK	48	0	6
BRK	48	72	1
BRK	48	72	3
BST	48	144	0
SLR	48	144	0	96	48	4
BST	48	144	7
SLL	48	144	7	96	48	3
TAP	49	0	1
TAP	49	24	3
TAP	49	48	1
TAP	49	96	7
TAP	49	144	0
TAP	49	144	7
TAP	49	192	6
TAP	49	216	4
TAP	49	240	6
TAP	49	288	0
TAP	49	336	0
HLD	49	336	7	144
TAP	50	48	4
HLD	50	96	0	96
TAP	50	192	7
TAP	50	216	0
TAP	50	240	7
TAP	50	288	4
TAP	50	288	5
HLD	50	336	2	336
TAP	50	336	3
TAP	51	48	0
TAP	51	96	0
TAP	51	144	6
TAP	51	192	6
TAP	51	240	4
TAP	51	288	4
STR	51	336	2
SI_	51	336	2	96	48	6
STR	52	48	4
SCR	52	48	4	96	144	3
TAP	53	0	1
TAP	53	24	0
TAP	53	48	1
TAP	53	96	4
TAP	53	120	3
TAP	53	144	4
HLD	53	168	3	120
TAP	53	216	1
TAP	53	240	1
TAP	53	288	7
TAP	54	0	6
TAP	54	24	7
TAP	54	48	6
TAP	54	96	3
TAP	54	96	4
TAP	54	120	3
TAP	54	120	4
TAP	54	168	3
HLD	54	168	4	120
TAP	54	240	6
STR	54	288	0
SUR	54	288	0	96	96	4
STR	55	0	7
SCL	55	0	7	96	192	0
TAP	56	0	0
TAP	56	0	1
TAP	56	48	7
TAP	56	72	0
TAP	56	96	7
STR	56	144	3
SI_	56	144	3	96	48	7
TAP	56	144	6
BRK	56	240	4
HLD	57	0	5	288
TAP	57	96	7
TAP	57	144	0
TAP	57	192	1
TAP	57	240	2
TAP	57	288	3
HLD	57	336	4	144
TAP	57	336	5
TAP	58	48	2
STR	58	96	7
SCL	58	96	7	96	96	1
TAP	58	192	0
HLD	59	0	2	288
TAP	59	96	0
TAP	59	144	7
TAP	59	192	6
TAP	59	240	5
TAP	59	288	4
TAP	59	336	2
HLD	59	336	3	192
TAP	60	48	6
TAP	60	96	7
STR	60	144	0
SSL	60	144	0	96	96	4
TAP	61	0	0
TAP	61	0	1
TAP	61	48	2
TAP	61	48	7
TAP	61	96	3
TAP	61	120	5
TAP	61	144	3
HLD	61	168	5	120
TAP	61	216	4
TAP	61	240	4
BRK	61	288	0
TAP	62	0	6
TAP	62	0	7
TAP	62	48	0
TAP	62	48	5
TAP	62	96	1
TAP	62	120	3
TAP	62	144	1
TAP	62	192	6
TAP	62	216	4
TAP	62	240	6
TAP	62	288	3
TAP	62	288	4
BST	63	0	0
SCR	63	0	0	96	192	7
BST	63	0	7
SCL	63	0	7	96	192	0
HLD	64	0	2	72
HLD	64	0	3	72
TAP	64	96	1
TAP	64	96	4
TAP	64	144	6
TAP	64	144	7
BRK	64	240	0
BRK	64	240	5
TAP	65	0	1
TAP	65	0	4
TAP	65	48	2
TAP	65	48	3
STR	65	96	1
SI_	65	96	1	96	48	5
TAP	65	96	4
STR	65	192	7
SI_	65	192	7	96	48	4
TAP	65	288	2
TAP	66	0	3
TAP	66	0	6
TAP	66	48	4
TAP	66	48	5
TAP	66	96	3
STR	66	96	6
SCL	66	96	6	96	48	3
STR	66	192	2
SUR	66	192	2	96	48	7
TAP	66	288	5
TAP	67	0	1
TAP	67	0	4
TAP	67	48	2
TAP	67	48	3
STR	67	96	1
SI_	67	96	1	96	48	5
TAP	67	96	4
STR	67	192	4
SI_	67	192	4	96	48	7
TAP	67	288	2
TAP	68	0	3
TAP	68	0	6
TAP	68	48	4
TAP	68	48	5
TAP	68	96	3
STR	68	96	6
SUR	68	96	6	96	48	3
STR	68	192	2
SCL	68	192	2	96	48	7
TAP	68	288	5
TAP	69	0	1
TAP	69	0	4
TAP	69	48	2
TAP	69	48	3
TAP	69	96	1
TAP	69	96	7
TAP	69	144	3
TAP	69	144	4
STR	69	192	0
SUL	69	192	0	96	48	3
STR	69	192	6
SCL	69	192	6	96	48	3
TAP	70	0	3
TAP	70	0	6
TAP	70	48	4
TAP	70	48	5
TAP	70	96	0
TAP	70	96	6
TAP	70	144	3
TAP	70	144	4
STR	70	192	1
SCR	70	192	1	96	48	4
STR	70	192	7
SUR	70	192	7	96	48	4
TAP	71	0	5
TAP	71	48	0
TAP	71	72	7
TAP	71	96	1
TAP	71	120	6
TAP	71	144	1
TAP	71	168	6
TAP	71	192	2
TAP	71	216	5
TAP	71	240	2
TAP	71	264	5
TAP	71	288	3
TAP	71	312	4
TAP	71	336	3
TAP	71	360	4
TAP	72	48	1
TAP	72	48	6
TAP	72	96	0
TAP	72	120	7
TAP	72	144	0
BRK	72	168	7

T_REC_TAP	396
T_REC_BRK	22
T_REC_XTP	0
T_REC_HLD	58
T_REC_XHO	0
T_REC_STR	46
T_REC_BST	8
T_REC_XST	0
T_REC_TTP	0
T_REC_THO	0
T_REC_SLD	55
T_REC_ALL	585
T_NUM_TAP	442
T_NUM_BRK	30
T_NUM_HLD	58
T_NUM_SLD	55
T_NUM_ALL	585
T_JUDGE_TAP	472
T_JUDGE_HLD	151
T_JUDGE_SLD	55
T_JUDGE_ALL	678
TTM_EACHPAIRS	135
TTM_SCR_TAP	221000
TTM_SCR_BRK	78000
TTM_SCR_HLD	58000
TTM_SCR_SLD	82500
TTM_SCR_ALL	439500
TTM_SCR_S	423450
TTM_SCR_SS	436500
TTM_RAT_ACV	10068

