VERSION	0.00.00	1.03.00
FES_MODE	0
BPM_DEF	132.000	132.000	132.000	132.000
MET_DEF	4	4
RESOLUTION	384
CLK_DEF	384
COMPATIBLE_CODE	MA2

BPM	0	0	132.000
MET	0	0	4	4

HLD	1	0	2	144
HLD	1	0	3	144
HLD	2	0	4	144
HLD	2	0	5	144
HLD	3	0	3	144
HLD	3	0	4	144
STR	4	0	3
SXR	4	0	3	96	480	0
STR	4	0	4
SXL	4	0	4	96	480	7
TAP	6	0	2
TAP	6	96	1
TAP	6	96	3
TAP	6	192	2
TAP	6	192	4
TAP	6	288	0
TAP	6	288	6
TAP	7	0	5
TAP	7	96	4
TAP	7	96	6
TAP	7	192	3
TAP	7	192	5
TAP	7	288	0
TAP	7	288	7
TAP	8	0	1
TAP	8	96	0
TAP	8	96	1
TAP	8	192	2
TAP	8	192	7
TAP	8	288	4
TAP	8	288	5
TAP	9	0	6
TAP	9	96	6
TAP	9	96	7
TAP	9	192	0
TAP	9	192	5
TAP	9	288	2
TAP	9	288	3
STR	10	0	1
SI_	10	0	1	96	48	4
STR	10	192	6
SI_	10	192	6	96	48	3
STR	11	0	2
SCL	11	0	2	96	192	5
TAP	12	0	2
TAP	12	0	3
TAP	12	96	1
TAP	12	96	4
TAP	12	192	0
TAP	12	240	0
TAP	12	288	7
TAP	13	0	4
TAP	13	0	5
TAP	13	96	3
TAP	13	96	6
TAP	13	192	7
TAP	13	240	7
TAP	13	288	0
TAP	14	0	6
TAP	14	0	7
TAP	14	96	0
TAP	14	96	5
TAP	14	192	0
TAP	14	192	1
TAP	14	288	2
TAP	14	288	7
TAP	15	0	3
TAP	15	0	4
TAP	15	96	1
TAP	15	96	6
TAP	15	192	5
TAP	15	240	5
TAP	15	288	4
TAP	16	0	2
TAP	16	48	2
TAP	16	96	3
TAP	16	192	5
TAP	16	288	4
TAP	16	288	6
TAP	17	0	2
TAP	17	96	1
TAP	17	96	3
TAP	17	192	6
TAP	17	240	6
TAP	17	288	4
TAP	18	0	1
TAP	18	48	1
TAP	18	96	3
TAP	18	192	7
TAP	18	240	7
TAP	18	288	0
TAP	19	0	1
TAP	19	0	3
TAP	19	96	4
TAP	19	96	6
BRK	19	192	0
BRK	19	192	7
HLD	20	0	2	144
HLD	20	144	3	144
TAP	20	288	4
HLD	21	0	5	144
HLD	21	144	4	144
TAP	21	288	3
HLD	22	0	0	144
HLD	22	144	7	144
TAP	22	288	0
TAP	23	0	1
TAP	23	0	6
TAP	23	96	2
TAP	23	96	5
BRK	23	192	0
BRK	23	192	7
TAP	24	0	1
TAP	24	96	0
TAP	24	96	2
TAP	24	192	7
TAP	24	240	7
TAP	24	288	0
TAP	25	0	6
TAP	25	96	5
TAP	25	96	7
TAP	25	192	0
TAP	25	240	0
TAP	25	288	7
HLD	26	0	2	96
TAP	26	96	3
HLD	26	192	5	96
TAP	26	288	4
HLD	27	0	1	96
TAP	27	96	0
TAP	27	192	7
TAP	27	240	7
TAP	27	288	0
TAP	27	288	6
TAP	28	0	2
TAP	28	96	1
TAP	28	96	3
TAP	28	192	0
TAP	28	240	0
TAP	28	288	1
TAP	28	288	7
TAP	29	0	5
TAP	29	96	4
TAP	29	96	6
TAP	29	192	7
TAP	29	240	7
TAP	29	288	0
TAP	29	288	6
TAP	30	0	3
TAP	30	0	4
TAP	30	96	2
TAP	30	96	5
TAP	30	192	1
TAP	30	192	6
TAP	30	288	0
TAP	30	288	7
STR	31	0	1
SUR	31	0	1	96	192	4
TAP	32	0	6
TAP	32	96	5
TAP	32	96	7
TAP	32	192	0
TAP	32	240	0
TAP	32	288	7
TAP	33	0	1
TAP	33	96	0
TAP	33	96	2
TAP	33	192	7
TAP	33	240	7
TAP	33	288	0
HLD	34	0	5	96
TAP	34	96	4
HLD	34	192	2	96
TAP	34	288	3
HLD	35	0	6	96
TAP	35	96	7
TAP	35	192	0
TAP	35	240	0
TAP	35	288	1
TAP	35	288	7
TAP	36	0	5
TAP	36	96	4
TAP	36	96	6
TAP	36	192	7
TAP	36	240	7
TAP	36	288	0
TAP	36	288	6
TAP	37	0	2
TAP	37	96	1
TAP	37	96	3
TAP	37	192	0
TAP	37	240	0
TAP	37	288	1
TAP	37	288	7
TAP	38	0	3
TAP	38	0	4
TAP	38	96	2
TAP	38	96	5
TAP	38	192	1
TAP	38	192	6
STR	38	288	0
SXL	38	288	0	96	288	3
STR	38	288	7
SXR	38	288	7	96	288	4
TAP	41	0	2
TAP	41	96	3
TAP	41	192	2
TAP	41	288	1
TAP	41	288	4
TAP	42	0	5
TAP	42	96	4
TAP	42	192	5
TAP	42	288	3
TAP	42	288	6
TAP	43	0	2
TAP	43	96	1
TAP	43	96	3
TAP	43	192	0
TAP	43	288	1
TAP	43	288	7
TAP	44	0	5
TAP	44	96	4
TAP	44	96	6
TAP	44	192	7
TAP	44	288	0
TAP	44	288	6
TAP	45	0	1
TAP	45	48	1
TAP	45	96	7
TAP	45	192	0
TAP	45	192	6
TAP	45	288	2
TAP	45	288	4
TAP	46	0	6
TAP	46	48	6
TAP	46	96	0
TAP	46	192	1
TAP	46	192	7
TAP	46	288	3
STR	46	288	5
SCR	46	288	5	96	192	2
TAP	48	0	2
TAP	48	0	5
TAP	48	96	1
TAP	48	96	6
TAP	48	192	0
TAP	48	192	7
TAP	48	240	0
TAP	48	240	7
BRK	48	288	0
BRK	48	288	7
TAP	49	0	6
TAP	49	0	7
TAP	49	96	0
TAP	49	96	5
TAP	49	192	1
TAP	49	240	1
TAP	49	288	7
TAP	50	0	0
TAP	50	0	1
TAP	50	96	2
TAP	50	96	7
TAP	50	192	6
TAP	50	240	6
TAP	50	288	0
HLD	51	0	2	96
TAP	51	96	3
HLD	51	192	5	96
TAP	51	288	4
HLD	52	0	1	96
TAP	52	96	0
TAP	52	192	7
TAP	52	240	7
TAP	52	288	0
TAP	52	288	6
TAP	53	0	2
TAP	53	0	3
TAP	53	96	1
TAP	53	96	4
TAP	53	192	0
TAP	53	240	0
TAP	53	288	1
TAP	53	288	7
TAP	54	0	4
TAP	54	0	5
TAP	54	96	3
TAP	54	96	6
TAP	54	192	7
TAP	54	240	7
TAP	54	288	0
TAP	54	288	6
TAP	55	0	3
TAP	55	0	4
TAP	55	96	2
TAP	55	96	5
TAP	55	192	1
TAP	55	192	6
TAP	55	288	0
TAP	55	288	7
STR	56	0	6
SUL	56	0	6	96	192	3
TAP	57	0	0
TAP	57	0	1
TAP	57	96	2
TAP	57	96	7
TAP	57	192	6
TAP	57	240	6
TAP	57	288	0
TAP	58	0	6
TAP	58	0	7
TAP	58	96	0
TAP	58	96	5
TAP	58	192	1
TAP	58	240	1
TAP	58	288	7
HLD	59	0	5	96
TAP	59	96	4
HLD	59	192	2	96
TAP	59	288	3
HLD	60	0	6	96
TAP	60	96	7
TAP	60	192	0
TAP	60	240	0
TAP	60	288	1
TAP	60	288	7
TAP	61	0	4
TAP	61	0	5
TAP	61	96	3
TAP	61	96	6
TAP	61	192	7
TAP	61	240	7
TAP	61	288	0
TAP	61	288	6
TAP	62	0	2
TAP	62	0	3
TAP	62	96	1
TAP	62	96	4
TAP	62	192	0
TAP	62	240	0
TAP	62	288	1
TAP	62	288	7
TAP	63	0	2
TAP	63	0	3
TAP	63	96	4
TAP	63	96	5
TAP	63	192	1
TAP	63	192	3
TAP	63	288	4
TAP	63	288	6
TAP	64	0	0
TAP	64	0	2
TAP	64	96	5
TAP	64	96	7
TAP	64	192	1
TAP	64	192	6
TAP	64	240	1
TAP	64	240	6
BRK	64	288	1
BRK	64	288	6
TAP	65	0	4
TAP	65	0	5
TAP	65	96	2
TAP	65	96	3
TAP	65	192	1
TAP	65	240	1
TAP	65	288	0
TAP	66	0	2
TAP	66	0	3
TAP	66	96	4
TAP	66	96	5
TAP	66	192	6
TAP	66	240	6
TAP	66	288	7
TAP	67	0	4
TAP	67	0	6
TAP	67	96	1
TAP	67	96	3
TAP	67	192	2
TAP	67	240	2
TAP	67	288	0
TAP	68	0	1
TAP	68	0	3
TAP	68	96	4
TAP	68	96	6
TAP	68	192	5
TAP	68	240	5
TAP	68	288	7
TAP	69	0	1
TAP	69	48	1
TAP	69	96	3
TAP	69	192	6
TAP	69	240	6
TAP	69	288	4
TAP	70	0	2
TAP	70	48	2
TAP	70	96	0
TAP	70	192	5
TAP	70	240	5
TAP	70	288	7
TAP	71	0	1
TAP	71	48	1
TAP	71	96	0
TAP	71	96	2
TAP	71	192	6
TAP	71	240	6
TAP	71	288	5
TAP	71	288	7
STR	72	0	3
SI_	72	0	3	96	48	0
STR	72	0	4
SI_	72	0	4	96	48	7

T_REC_TAP	355
T_REC_BRK	8
T_REC_XTP	0
T_REC_HLD	24
T_REC_XHO	0
T_REC_STR	12
T_REC_BST	0
T_REC_XST	0
T_REC_TTP	0
T_REC_THO	0
T_REC_SLD	12
T_REC_ALL	411
T_NUM_TAP	367
T_NUM_BRK	8
T_NUM_HLD	24
T_NUM_SLD	12
T_NUM_ALL	411
T_JUDGE_TAP	375
T_JUDGE_HLD	60
T_JUDGE_SLD	12
T_JUDGE_ALL	447
TTM_EACHPAIRS	117
TTM_SCR_TAP	183500
TTM_SCR_BRK	20800
TTM_SCR_HLD	24000
TTM_SCR_SLD	18000
TTM_SCR_ALL	246300
TTM_SCR_S	238150
TTM_SCR_SS	245500
TTM_RAT_ACV	10032

