VERSION	0.00.00	1.03.00
FES_MODE	0
BPM_DEF	132.000	132.000	132.000	132.000
MET_DEF	4	4
RESOLUTION	384
CLK_DEF	384
COMPATIBLE_CODE	MA2

BPM	0	0	132.000
MET	0	0	4	4

TAP	6	0	0
TAP	6	96	0
TAP	6	192	0
TAP	7	0	1
TAP	7	96	1
TAP	7	192	1
TAP	8	0	2
TAP	8	96	2
TAP	8	192	2
TAP	9	0	3
TAP	9	96	4
TAP	9	192	3
TAP	10	0	5
TAP	10	96	5
TAP	10	192	5
HLD	11	0	6	192
TAP	12	0	6
TAP	12	0	7
TAP	12	192	6
TAP	12	192	7
TAP	13	0	0
TAP	13	0	1
TAP	13	192	0
TAP	13	192	1
TAP	14	0	0
TAP	14	0	6
TAP	14	192	1
TAP	14	192	7
TAP	15	0	0
TAP	15	96	7
TAP	15	192	0
TAP	16	0	2
TAP	16	0	3
TAP	16	192	2
TAP	16	192	3
TAP	17	0	4
TAP	17	0	5
TAP	17	192	4
TAP	17	192	5
TAP	18	0	2
TAP	18	0	4
TAP	18	192	3
TAP	18	192	5
TAP	19	0	4
TAP	19	96	3
BRK	19	192	4
HLD	20	0	4	96
HLD	20	0	5	96
TAP	20	192	4
TAP	20	192	5
HLD	21	0	2	96
HLD	21	0	3	96
TAP	21	192	2
TAP	21	192	3
HLD	22	0	0	96
HLD	22	0	1	96
TAP	22	192	0
TAP	22	192	1
TAP	23	0	6
TAP	23	0	7
TAP	23	96	6
TAP	23	96	7
TAP	23	192	6
TAP	23	192	7
TAP	24	0	6
TAP	24	96	6
TAP	24	192	5
TAP	24	288	5
TAP	25	0	4
TAP	25	96	4
TAP	25	192	3
TAP	25	192	4
TAP	26	0	3
TAP	26	96	3
TAP	26	192	2
TAP	26	288	2
TAP	27	0	1
TAP	27	96	1
TAP	27	192	0
TAP	27	192	7
TAP	28	0	1
TAP	28	96	1
TAP	28	192	2
TAP	28	288	2
TAP	29	0	3
TAP	29	96	3
TAP	29	192	3
TAP	29	192	4
STR	30	0	4
SI_	30	0	4	96	288	7
TAP	31	192	0
TAP	31	192	7
TAP	32	0	1
TAP	32	96	1
TAP	32	192	2
TAP	32	288	2
TAP	33	0	3
TAP	33	96	3
TAP	33	192	3
TAP	33	192	4
TAP	34	0	4
TAP	34	96	4
TAP	34	192	5
TAP	34	288	5
TAP	35	0	6
TAP	35	96	6
TAP	35	192	0
TAP	35	192	7
TAP	36	0	6
TAP	36	96	6
TAP	36	192	5
TAP	36	288	5
TAP	37	0	4
TAP	37	96	4
TAP	37	192	3
TAP	37	192	4
STR	38	0	3
SI_	38	0	3	96	288	0
TAP	41	0	0
TAP	41	96	0
TAP	41	192	1
TAP	41	288	1
TAP	42	0	2
TAP	42	96	2
TAP	42	192	3
TAP	42	288	3
TAP	42	288	4
TAP	43	0	4
TAP	43	96	4
TAP	43	192	5
TAP	43	288	5
TAP	44	0	6
TAP	44	96	6
TAP	44	192	0
TAP	44	192	7
TAP	45	0	7
TAP	45	96	7
TAP	45	192	6
TAP	45	288	6
TAP	46	0	5
TAP	46	96	5
TAP	46	192	4
TAP	46	288	3
TAP	46	288	4
TAP	47	0	3
TAP	47	96	3
TAP	47	192	2
TAP	47	288	2
TAP	48	0	1
TAP	48	96	1
TAP	48	192	0
TAP	48	192	7
TAP	49	0	1
TAP	49	96	1
TAP	49	192	2
TAP	49	288	2
TAP	50	0	3
TAP	50	96	4
TAP	50	192	3
TAP	51	0	5
TAP	51	96	5
TAP	51	192	6
TAP	51	288	6
TAP	52	0	7
TAP	52	96	0
TAP	52	192	7
TAP	53	0	6
TAP	53	0	7
TAP	53	96	6
TAP	53	192	5
TAP	53	288	5
TAP	54	0	4
TAP	54	96	3
TAP	54	192	3
TAP	54	192	4
HLD	55	0	3	288
HLD	55	0	4	288
TAP	56	0	2
TAP	56	0	5
BRK	56	192	2
BRK	56	192	5
TAP	57	0	2
TAP	57	96	2
TAP	57	192	3
TAP	57	288	3
TAP	58	0	4
TAP	58	96	4
TAP	58	192	5
TAP	58	288	4
TAP	58	288	5
TAP	59	0	5
TAP	59	96	5
TAP	59	192	4
TAP	59	288	4
TAP	60	0	3
TAP	60	96	3
TAP	60	192	2
TAP	60	288	2
TAP	60	288	3
TAP	61	0	1
TAP	61	96	1
TAP	61	192	0
TAP	61	288	0
TAP	61	288	7
TAP	62	0	6
TAP	62	96	6
TAP	62	192	7
TAP	62	288	0
TAP	62	288	7
HLD	63	0	0	288
HLD	63	0	7	288
TAP	64	0	1
TAP	64	0	6
BRK	64	192	1
BRK	64	192	6
TAP	65	0	0
TAP	65	0	1
TAP	65	192	0
TAP	65	192	1
TAP	66	0	2
TAP	66	0	3
TAP	66	192	2
TAP	66	192	3
TAP	67	0	4
TAP	67	0	5
TAP	67	192	4
TAP	67	192	5
TAP	68	0	6
TAP	68	0	7
TAP	68	192	6
TAP	68	192	7
TAP	69	0	0
TAP	69	0	1
TAP	69	96	0
TAP	69	96	1
TAP	69	192	0
TAP	69	192	1
TAP	70	0	6
TAP	70	0	7
TAP	70	96	6
TAP	70	96	7
TAP	70	192	6
TAP	70	192	7
HLD	71	0	4	192
HLD	71	0	5	192
HLD	72	0	2	168
HLD	72	0	3	168

T_REC_TAP	223
T_REC_BRK	5
T_REC_XTP	0
T_REC_HLD	15
T_REC_XHO	0
T_REC_STR	2
T_REC_BST	0
T_REC_XST	0
T_REC_TTP	0
T_REC_THO	0
T_REC_SLD	2
T_REC_ALL	247
T_NUM_TAP	225
T_NUM_BRK	5
T_NUM_HLD	15
T_NUM_SLD	2
T_NUM_ALL	247
T_JUDGE_TAP	230
T_JUDGE_HLD	56
T_JUDGE_SLD	2
T_JUDGE_ALL	288
TTM_EACHPAIRS	60
TTM_SCR_TAP	112500
TTM_SCR_BRK	13000
TTM_SCR_HLD	15000
TTM_SCR_SLD	3000
TTM_SCR_ALL	143500
TTM_SCR_S	138750
TTM_SCR_SS	143000
TTM_RAT_ACV	10034

