VERSION	0.00.00	1.03.00
FES_MODE	0
BPM_DEF	177.000	182.000	182.000	177.000
MET_DEF	4	4
RESOLUTION	384
CLK_DEF	384
COMPATIBLE_CODE	MA2

BPM	0	0	177.000
BPM	9	192	182.000
MET	0	0	4	4
MET	9	0	4	2
MET	9	192	4	4
MET	65	192	4	2
MET	66	0	4	4

TAP	1	0	5
TAP	1	32	6
TAP	1	64	7
TAP	1	96	3
TAP	1	128	2
TAP	1	160	1
STR	1	192	0
SCR	1	192	0	96	64	4
HLD	1	192	4	96
TAP	1	288	0
TAP	2	0	5
TAP	2	32	6
TAP	2	64	7
TAP	2	96	3
TAP	2	128	2
TAP	2	160	1
TAP	2	192	4
TAP	2	224	5
TAP	2	256	6
TAP	2	288	2
TAP	2	320	1
TAP	2	352	0
TAP	3	0	5
TAP	3	32	6
TAP	3	64	7
TAP	3	96	3
TAP	3	128	2
TAP	3	160	1
STR	3	192	0
SCR	3	192	0	96	64	4
HLD	3	192	4	96
TAP	3	288	0
TAP	4	0	5
TAP	4	32	6
TAP	4	64	7
TAP	4	96	3
TAP	4	128	2
TAP	4	160	1
TAP	4	192	4
TAP	4	224	5
TAP	4	256	6
TAP	4	288	2
TAP	4	320	1
TAP	4	352	0
TAP	5	0	5
TAP	5	32	6
TAP	5	64	7
TAP	5	96	3
TAP	5	128	2
TAP	5	160	1
STR	5	192	0
SCR	5	192	0	96	64	4
HLD	5	192	4	96
TAP	5	256	0
TAP	5	288	0
TAP	6	0	5
TAP	6	32	6
TAP	6	64	7
TAP	6	96	3
TAP	6	128	2
TAP	6	160	1
TAP	6	192	4
TAP	6	224	5
TAP	6	256	6
TAP	6	288	2
TAP	6	320	1
TAP	6	352	0
TAP	7	0	3
TAP	7	32	4
TAP	7	64	5
TAP	7	96	2
TAP	7	128	1
TAP	7	160	0
TAP	7	192	4
TAP	7	224	5
TAP	7	256	6
TAP	7	288	3
TAP	7	320	2
TAP	7	352	1
TAP	8	0	5
TAP	8	32	6
TAP	8	64	7
TAP	8	96	0
TAP	8	128	1
TAP	8	160	2
STR	8	192	3
SXR	8	192	3	96	192	7
TAP	9	192	7
TAP	9	224	6
TAP	9	256	5
TAP	9	288	0
TAP	9	320	1
TAP	9	352	2
STR	10	0	4
SCR	10	0	4	96	48	7
TAP	10	64	0
TAP	10	96	0
TAP	10	128	1
TAP	10	160	2
TAP	10	192	7
TAP	10	224	6
TAP	10	256	5
TAP	10	288	1
TAP	10	320	2
TAP	10	352	3
TAP	11	0	0
TAP	11	32	7
TAP	11	64	6
TAP	11	96	2
TAP	11	128	3
TAP	11	160	4
TAP	11	192	7
TAP	11	224	6
TAP	11	256	5
TAP	11	288	0
TAP	11	320	1
TAP	11	352	2
STR	12	0	4
SCR	12	0	4	96	48	7
TAP	12	64	0
TAP	12	96	0
TAP	12	128	1
TAP	12	160	2
TAP	12	192	7
TAP	12	224	6
TAP	12	256	5
TAP	12	288	1
TAP	12	320	2
TAP	12	352	3
TAP	13	0	0
TAP	13	32	7
TAP	13	64	6
TAP	13	96	5
TAP	13	128	4
TAP	13	160	3
TAP	13	192	0
TAP	13	224	1
TAP	13	256	2
TAP	13	288	7
TAP	13	320	6
TAP	13	352	5
STR	14	0	3
SCL	14	0	3	96	48	0
TAP	14	64	7
TAP	14	96	7
TAP	14	128	6
TAP	14	160	5
TAP	14	192	0
TAP	14	224	1
TAP	14	256	2
TAP	14	288	6
TAP	14	320	5
TAP	14	352	4
TAP	15	0	7
TAP	15	32	0
TAP	15	64	1
TAP	15	96	5
TAP	15	128	4
TAP	15	160	3
TAP	15	192	0
TAP	15	224	1
TAP	15	256	2
TAP	15	288	4
TAP	15	320	5
TAP	15	352	6
TAP	16	0	1
TAP	16	32	2
TAP	16	64	3
TAP	16	96	5
TAP	16	128	6
TAP	16	160	7
TAP	16	192	2
TAP	16	224	3
TAP	16	256	4
TAP	16	288	6
TAP	16	320	7
TAP	16	352	0
TAP	17	0	3
TAP	17	32	4
TAP	17	64	5
TAP	17	96	6
TAP	17	128	7
TAP	17	160	0
STR	17	192	1
SI_	17	192	1	96	48	5
TAP	17	288	1
STR	17	288	4
SI_	17	288	4	96	48	0
STR	18	0	2
SI_	18	0	2	96	48	6
TAP	18	0	4
TAP	18	96	2
STR	18	96	3
SI_	18	96	3	96	48	7
STR	18	192	1
SI_	18	192	1	96	48	5
TAP	18	192	3
TAP	18	288	1
STR	18	288	4
SI_	18	288	4	96	48	0
STR	19	0	2
SI_	19	0	2	96	48	5
SI_	19	0	2	96	48	7
TAP	19	0	4
TAP	19	96	2
STR	19	192	6
SI_	19	192	6	96	48	2
STR	19	288	3
SI_	19	288	3	96	48	7
TAP	19	288	6
TAP	20	0	3
STR	20	0	5
SI_	20	0	5	96	48	1
STR	20	96	4
SI_	20	96	4	96	48	0
TAP	20	96	5
TAP	20	192	4
STR	20	192	6
SI_	20	192	6	96	48	2
STR	20	288	3
SI_	20	288	3	96	48	7
TAP	20	288	6
TAP	21	0	3
STR	21	0	5
SI_	21	0	5	96	48	0
SI_	21	0	5	96	48	2
TAP	21	96	5
TAP	21	192	1
TAP	21	192	3
TAP	21	240	1
TAP	21	240	3
TAP	21	288	2
TAP	21	288	4
TAP	21	336	2
TAP	21	336	4
TAP	22	0	3
TAP	22	0	5
TAP	22	48	3
TAP	22	48	5
TAP	22	96	4
TAP	22	96	6
TAP	22	144	4
TAP	22	144	6
TAP	22	192	5
TAP	22	192	7
TAP	22	240	5
TAP	22	240	7
TAP	22	288	0
TAP	22	288	6
TAP	22	336	0
TAP	22	336	6
TAP	23	0	1
TAP	23	0	7
TAP	23	48	1
TAP	23	48	7
TAP	23	96	0
TAP	23	96	2
TAP	23	144	0
TAP	23	144	2
TAP	23	192	3
TAP	23	216	4
TAP	23	240	3
TAP	23	264	4
TAP	23	288	2
TAP	23	312	5
TAP	23	336	2
TAP	23	360	5
TAP	24	0	1
TAP	24	24	6
TAP	24	48	1
TAP	24	72	6
TAP	24	96	0
TAP	24	120	7
TAP	24	144	0
TAP	24	168	7
TAP	24	192	0
TAP	24	204	1
TAP	24	216	2
TAP	24	228	3
TAP	24	240	4
TAP	24	252	5
TAP	24	264	6
TAP	24	276	7
STR	24	288	0
SXR	24	288	0	96	144	4
TAP	24	300	1
TAP	24	312	2
TAP	24	324	3
TAP	24	336	4
TAP	24	348	5
TAP	24	360	6
TAP	24	372	7
TAP	25	0	0
HLD	25	192	0	48
HLD	25	192	2	48
HLD	25	264	5	48
HLD	25	264	7	48
HLD	25	336	1	48
HLD	25	336	3	48
HLD	26	24	4	48
HLD	26	24	6	48
HLD	26	96	7	288
BRK	26	192	2
BRK	26	288	1
BST	27	0	0
SF_	27	0	0	96	48	4
TAP	27	96	0
TAP	27	192	2
TAP	27	240	1
TAP	27	288	0
TAP	27	336	6
TAP	27	360	7
TAP	28	0	6
TAP	28	48	3
TAP	28	48	4
STR	28	96	1
SCR	28	96	1	96	48	4
TAP	28	96	7
TAP	28	240	0
TAP	28	264	7
TAP	28	288	6
TAP	28	312	5
TAP	28	336	4
HLD	29	0	2	144
TAP	29	48	0
TAP	29	72	7
TAP	29	96	6
TAP	29	144	4
TAP	29	192	2
TAP	29	240	3
TAP	29	288	4
TAP	29	288	6
TAP	29	336	5
TAP	30	0	4
TAP	30	48	1
TAP	30	48	3
STR	30	96	2
SCL	30	96	2	96	96	6
TAP	30	144	3
TAP	30	192	6
TAP	30	216	5
TAP	30	240	4
TAP	30	264	3
TAP	30	288	2
TAP	30	336	7
TAP	30	360	0
TAP	31	0	1
TAP	31	48	3
TAP	31	48	4
TAP	31	96	1
TAP	31	96	6
TAP	31	192	5
TAP	31	240	6
TAP	31	288	7
TAP	31	336	1
TAP	31	360	0
TAP	32	0	1
TAP	32	48	2
TAP	32	48	3
TAP	32	96	3
TAP	32	96	4
TAP	32	144	4
TAP	32	144	5
HLD	32	192	7	96
TAP	32	240	5
HLD	32	288	0	96
TAP	32	336	2
HLD	33	0	7	96
TAP	33	48	4
TAP	33	72	3
TAP	33	96	2
TAP	33	144	0
TAP	33	144	7
TAP	33	192	6
TAP	33	240	5
TAP	33	288	3
TAP	33	288	4
TAP	33	336	1
TAP	34	0	2
TAP	34	48	3
TAP	34	48	4
TAP	34	96	6
TAP	34	144	5
HLD	34	192	4	96
TAP	34	240	3
TAP	34	264	2
TAP	34	288	1
HLD	34	336	4	96
TAP	35	0	5
TAP	35	24	6
TAP	35	48	7
TAP	35	96	3
TAP	35	96	4
BRK	35	192	2
HLD	35	192	4	192
BRK	35	288	1
BST	36	0	0
SF_	36	0	0	96	48	4
TAP	36	96	0
TAP	36	240	0
TAP	36	264	7
TAP	36	288	6
TAP	36	312	5
TAP	36	336	4
TAP	37	0	1
TAP	37	0	2
TAP	37	48	4
TAP	37	72	3
TAP	37	96	4
TAP	37	144	5
TAP	37	144	6
TAP	37	192	4
TAP	37	192	7
TAP	37	288	0
TAP	37	288	7
TAP	37	336	1
TAP	38	0	2
TAP	38	48	0
TAP	38	48	7
TAP	38	96	6
TAP	38	144	5
TAP	38	192	3
HLD	38	192	4	96
TAP	38	240	2
TAP	38	288	1
HLD	38	336	3	96
TAP	38	336	4
TAP	39	0	5
TAP	39	48	6
TAP	39	96	2
TAP	39	96	7
BRK	39	192	0
BST	39	192	1
SCL	39	192	1	96	96	6
TAP	39	336	5
TAP	39	360	4
STR	40	0	3
SI_	40	0	3	96	48	7
TAP	40	48	2
TAP	40	96	3
TAP	40	192	1
TAP	40	240	0
TAP	40	240	2
TAP	40	336	3
TAP	40	336	7
TAP	41	48	4
TAP	41	48	6
STR	41	96	5
SCR	41	96	5	96	96	1
STR	41	192	1
SCL	41	192	1	96	192	3
TAP	41	240	2
TAP	41	288	3
TAP	41	336	2
TAP	42	0	1
TAP	42	48	0
TAP	42	96	7
TAP	42	144	6
TAP	42	192	3
TAP	42	192	4
TAP	42	240	1
TAP	42	288	0
TAP	42	336	6
TAP	42	360	7
TAP	43	0	6
TAP	43	48	0
TAP	43	48	7
BRK	43	96	1
BRK	43	96	6
HLD	43	192	4	352
TAP	44	160	6
TAP	44	176	7
TAP	44	192	0
TAP	44	240	5
TAP	44	288	1
TAP	44	336	6
STR	45	0	2
SXL	45	0	2	96	48	4
TAP	45	48	7
TAP	45	192	7
TAP	45	208	6
TAP	45	224	5
STR	46	0	2
SI_	46	0	2	96	48	7
STR	46	144	0
SI_	46	144	0	96	48	4
STR	46	288	3
SCR	46	288	3	96	48	6
STR	47	48	7
SI_	47	48	7	96	48	1
STR	47	192	5
SCL	47	192	5	96	48	3
STR	47	336	0
SCR	47	336	0	96	48	2
STR	48	96	3
SCR	48	96	3	96	48	5
STR	48	240	6
SCL	48	240	6	96	144	2
TAP	49	192	7
TAP	49	208	0
HLD	49	224	1	736
STR	50	0	2
SI_	50	0	2	96	24	7
TAP	50	72	2
STR	50	144	6
SI_	50	144	6	96	24	3
TAP	50	216	6
STR	50	288	2
SI_	50	288	2	96	24	6
TAP	50	360	2
STR	51	48	7
SI_	51	48	7	96	24	3
TAP	51	120	7
TAP	51	192	4
TAP	51	208	5
HLD	51	224	6	736
STR	52	0	5
SI_	52	0	5	96	24	0
TAP	52	72	5
STR	52	144	1
SI_	52	144	1	96	24	4
TAP	52	216	1
STR	52	288	5
SI_	52	288	5	96	24	1
TAP	52	360	5
STR	53	48	0
SI_	53	48	0	96	24	4
TAP	53	120	0
TAP	53	192	3
TAP	53	208	2
HLD	53	224	1	736
STR	54	0	2
SI_	54	0	2	96	24	7
TAP	54	72	2
STR	54	144	6
SI_	54	144	6	96	24	3
TAP	54	216	6
STR	54	288	2
SI_	54	288	2	96	24	6
TAP	54	360	2
STR	55	48	7
SI_	55	48	7	96	24	3
TAP	55	120	7
TAP	55	192	4
TAP	55	208	5
HLD	55	224	6	136
HLD	56	0	0	48
HLD	56	0	6	48
HLD	56	72	1	48
HLD	56	72	6	48
HLD	56	144	2	48
HLD	56	144	6	48
HLD	56	216	3	48
HLD	56	216	6	48
HLD	56	288	4	48
HLD	56	288	6	48
HLD	56	360	5	48
HLD	56	360	6	48
HLD	57	48	6	48
HLD	57	48	7	48
HLD	57	120	0	48
HLD	57	120	6	48
TAP	57	192	1
TAP	57	208	2
HLD	57	224	3	736
STR	58	0	4
SI_	58	0	4	96	24	0
TAP	58	72	4
STR	58	144	1
SI_	58	144	1	96	24	5
TAP	58	216	1
STR	58	288	6
SI_	58	288	6	96	24	1
TAP	58	360	6
STR	59	48	2
SI_	59	48	2	96	24	7
TAP	59	120	2
TAP	59	192	6
TAP	59	208	5
HLD	59	224	4	136
HLD	60	0	1	48
HLD	60	0	4	48
HLD	60	72	4	48
HLD	60	72	7	48
HLD	60	144	1	48
HLD	60	144	4	48
HLD	60	216	4	48
HLD	60	216	7	48
HLD	60	288	4	48
HLD	60	288	6	48
HLD	60	360	4	48
HLD	60	360	5	48
HLD	61	48	2	48
HLD	61	48	4	48
HLD	61	120	1	48
HLD	61	120	4	48
HLD	61	192	3	48
HLD	61	192	6	48
HLD	61	264	0	48
HLD	61	264	3	48
HLD	61	336	3	48
HLD	61	336	6	48
STR	62	24	0
SCL	62	24	0	96	24	5
SCR	62	24	0	96	24	3
TAP	62	24	3
BRK	62	96	0
HLD	62	192	1	48
HLD	62	192	4	48
HLD	62	264	4	48
HLD	62	264	7	48
HLD	62	336	1	48
HLD	62	336	4	48
TAP	63	24	4
STR	63	24	7
SCL	63	24	7	96	24	4
SCR	63	24	7	96	24	2
BRK	63	96	7
HLD	63	192	3	48
HLD	63	192	6	48
HLD	63	264	0	48
HLD	63	264	3	48
HLD	63	336	3	48
HLD	63	336	6	48
HLD	64	24	3	48
HLD	64	24	5	48
HLD	64	96	0	48
HLD	64	96	3	48
HLD	64	168	1	48
HLD	64	168	3	48
HLD	64	240	3	48
HLD	64	240	6	48
TAP	64	312	0
STR	64	312	3
SF_	64	312	3	96	216	7
BRK	65	0	3
TAP	66	0	5
TAP	66	32	6
TAP	66	64	7
TAP	66	96	3
TAP	66	128	2
TAP	66	160	1
STR	66	192	0
SCR	66	192	0	96	64	4
HLD	66	192	4	96
TAP	66	288	0
TAP	67	0	5
TAP	67	32	6
TAP	67	64	7
TAP	67	96	3
TAP	67	128	2
TAP	67	160	1
TAP	67	192	4
TAP	67	224	5
TAP	67	256	6
TAP	67	288	2
TAP	67	320	1
TAP	67	352	0
TAP	68	0	5
TAP	68	32	6
TAP	68	64	7
TAP	68	96	3
TAP	68	128	2
TAP	68	160	1
STR	68	192	0
SCR	68	192	0	96	64	4
HLD	68	192	4	96
TAP	68	288	0
TAP	69	0	5
TAP	69	32	6
TAP	69	64	7
TAP	69	96	3
TAP	69	128	2
TAP	69	160	1
TAP	69	192	4
TAP	69	224	5
TAP	69	256	6
TAP	69	288	2
TAP	69	320	1
TAP	69	352	0
TAP	70	0	5
TAP	70	32	6
TAP	70	64	7
TAP	70	96	3
TAP	70	128	2
TAP	70	160	1
STR	70	192	0
SCR	70	192	0	96	64	4
HLD	70	192	4	96
TAP	70	256	0
TAP	70	288	0
TAP	71	0	5
TAP	71	32	6
TAP	71	64	7
TAP	71	96	3
TAP	71	128	2
TAP	71	160	1
TAP	71	192	4
TAP	71	224	5
TAP	71	256	6
TAP	71	288	2
TAP	71	320	1
TAP	71	352	0
TAP	72	0	3
TAP	72	32	4
TAP	72	64	5
TAP	72	96	2
TAP	72	128	1
TAP	72	160	0
TAP	72	192	4
TAP	72	224	5
TAP	72	256	6
TAP	72	288	3
TAP	72	320	2
TAP	72	352	1
TAP	73	0	5
TAP	73	32	6
TAP	73	64	7
TAP	73	96	4
TAP	73	128	3
TAP	73	160	2
TAP	73	192	4
TAP	73	224	5
TAP	73	256	6
TAP	73	288	3
TAP	73	320	2
TAP	73	352	1
TAP	74	0	4
TAP	74	32	3
TAP	74	64	2
TAP	74	96	1
TAP	74	128	0
TAP	74	160	7
TAP	74	192	3
TAP	74	224	2
TAP	74	256	1
TAP	74	288	4
TAP	74	320	3
TAP	74	352	2
TAP	75	0	5
TAP	75	32	4
TAP	75	64	3
TAP	75	96	2
TAP	75	128	1
TAP	75	160	0
HLD	75	192	7	768
BRK	77	0	2
BRK	77	96	1
BST	77	192	0
SF_	77	192	0	96	32	4
TAP	77	288	0
TAP	78	0	2
TAP	78	48	1
TAP	78	96	0
TAP	78	144	6
TAP	78	168	7
TAP	78	192	6
TAP	78	240	3
TAP	78	240	4
TAP	78	288	1
TAP	78	288	7
TAP	79	0	4
TAP	79	0	7
TAP	79	32	6
TAP	79	64	5
TAP	79	96	1
TAP	79	96	4
TAP	79	128	3
TAP	79	160	2
TAP	79	192	1
TAP	79	192	6
TAP	79	224	0
TAP	79	256	7
TAP	79	288	3
TAP	79	288	6
TAP	79	336	1
TAP	80	0	2
TAP	80	48	3
TAP	80	96	4
TAP	80	96	6
TAP	80	144	5
TAP	80	192	4
TAP	80	240	1
TAP	80	240	3
STR	80	288	2
SCL	80	288	2	96	96	6
TAP	80	336	3
TAP	81	0	6
TAP	81	24	5
TAP	81	48	4
TAP	81	72	3
TAP	81	96	2
TAP	81	144	7
TAP	81	168	0
TAP	81	192	1
TAP	81	240	3
TAP	81	240	4
TAP	81	288	0
STR	81	288	5
SCR	81	288	5	96	48	0
TAP	82	0	0
TAP	82	24	1
TAP	82	48	2
TAP	82	72	3
TAP	82	96	4
TAP	82	144	1
TAP	82	168	0
TAP	82	192	1
TAP	82	240	2
TAP	82	240	3
TAP	82	288	4
TAP	82	288	5
TAP	82	336	6
TAP	82	336	7
TAP	83	0	0
HLD	83	0	1	96
TAP	83	48	3
HLD	83	96	7	96
TAP	83	144	4
HLD	83	192	0	96
TAP	83	240	3
TAP	83	264	4
TAP	83	288	5
TAP	83	336	0
TAP	83	336	7
TAP	84	0	1
TAP	84	48	2
TAP	84	96	3
TAP	84	96	4
TAP	84	144	5
TAP	84	192	6
TAP	84	240	3
TAP	84	240	4
TAP	84	288	2
TAP	84	336	1
HLD	85	0	0	96
TAP	85	48	1
TAP	85	72	2
TAP	85	96	3
HLD	85	144	0	96
TAP	85	192	7
TAP	85	216	6
TAP	85	240	5
TAP	85	288	0
TAP	85	288	7
BRK	86	0	2
TAP	86	0	7
TAP	86	48	6
BRK	86	96	1
TAP	86	96	5
TAP	86	144	4
TAP	86	168	5
BST	86	192	0
SF_	86	192	0	96	48	4
TAP	86	192	6
TAP	86	240	7
TAP	86	288	0
TAP	87	48	0
TAP	87	72	7
TAP	87	96	6
TAP	87	120	5
TAP	87	144	4
TAP	87	192	1
TAP	87	192	2
TAP	87	240	4
TAP	87	264	3
TAP	87	288	4
TAP	87	336	5
TAP	87	336	6
TAP	88	0	4
HLD	88	0	7	96
TAP	88	96	0
TAP	88	144	1
TAP	88	192	2
TAP	88	240	0
TAP	88	240	7
TAP	88	288	6
TAP	88	336	5
HLD	89	0	3	96
HLD	89	0	4	96
HLD	89	144	5	96
HLD	89	144	7	96
HLD	89	288	0	48
HLD	89	288	2	48
BST	90	0	6
SCR	90	0	6	96	96	1
BRK	90	0	7
TAP	90	144	2
TAP	90	168	3
STR	90	192	4
SI_	90	192	4	96	48	0
TAP	90	240	5
TAP	90	288	4
TAP	91	0	6
TAP	91	48	5
TAP	91	48	7
TAP	91	144	1
TAP	91	144	3
TAP	91	240	2
STR	91	288	2
SCR	91	288	2	96	96	6
HLD	92	0	7	288
TAP	92	144	0
TAP	92	168	1
TAP	92	192	2
TAP	92	240	3
STR	92	288	3
SSL	92	288	3	96	96	7
TAP	93	0	4
TAP	93	48	5
TAP	93	144	0
TAP	93	144	6
TAP	93	240	1
TAP	93	240	5
BRK	93	288	3
BRK	93	288	7
HLD	94	0	5	48
HLD	94	0	7	48
HLD	94	72	1	48
HLD	94	72	7	48
HLD	94	144	4	48
HLD	94	144	7	48
STR	94	216	2
SI_	94	216	2	96	24	6
HLD	94	216	7	48
TAP	94	288	2
TAP	94	288	7
TAP	94	336	7
HLD	95	0	6	48
HLD	95	0	7	48
HLD	95	72	0	48
HLD	95	72	7	48
HLD	95	144	5	48
HLD	95	144	7	48
STR	95	216	1
SI_	95	216	1	96	24	4
STR	95	216	7
SI_	95	216	7	96	24	4
BRK	95	288	1
BRK	95	288	7
HLD	96	0	0	48
STR	96	0	6
SI_	96	0	6	96	24	3
HLD	96	72	0	48
TAP	96	72	6
HLD	96	144	0	48
STR	96	144	1
SI_	96	144	1	96	24	4
HLD	96	216	0	48
TAP	96	216	1
HLD	96	288	0	48
STR	96	288	5
SI_	96	288	5	96	24	1
HLD	96	360	0	48
TAP	96	360	5
HLD	97	48	0	48
STR	97	48	2
SI_	97	48	2	96	24	6
STR	97	120	0
SCR	97	120	0	96	360	7
TAP	97	120	2
TAP	97	192	0

T_REC_TAP	662
T_REC_BRK	19
T_REC_XTP	0
T_REC_HLD	123
T_REC_XHO	0
T_REC_STR	71
T_REC_BST	6
T_REC_XST	0
T_REC_TTP	0
T_REC_THO	0
T_REC_SLD	81
T_REC_ALL	962
T_NUM_TAP	733
T_NUM_BRK	25
T_NUM_HLD	123
T_NUM_SLD	81
T_NUM_ALL	962
T_JUDGE_TAP	758
T_JUDGE_HLD	247
T_JUDGE_SLD	81
T_JUDGE_ALL	1086
TTM_EACHPAIRS	151
TTM_SCR_TAP	366500
TTM_SCR_BRK	65000
TTM_SCR_HLD	123000
TTM_SCR_SLD	121500
TTM_SCR_ALL	676000
TTM_SCR_S	653300
TTM_SCR_SS	673500
TTM_RAT_ACV	10037

