VERSION	0.00.00	1.03.00
FES_MODE	0
BPM_DEF	177.000	182.000	182.000	177.000
MET_DEF	4	4
RESOLUTION	384
CLK_DEF	384
COMPATIBLE_CODE	MA2

BPM	0	0	177.000
BPM	9	192	182.000
BPM	9	192	182.000
MET	0	0	4	4
MET	8	0	4	6
MET	9	192	4	4
MET	64	192	4	6
MET	66	0	4	4

HLD	1	0	1	384
HLD	2	0	3	192
HLD	2	192	4	192
HLD	3	0	6	384
HLD	4	0	4	192
HLD	4	192	3	192
HLD	5	0	1	384
HLD	6	0	3	192
HLD	6	192	5	192
HLD	7	0	7	192
HLD	7	192	1	192
HLD	8	0	3	192
BRK	8	192	7
HLD	9	192	5	384
TAP	10	0	1
TAP	10	96	0
HLD	10	192	7	192
HLD	11	0	0	192
HLD	11	192	2	384
TAP	12	0	6
TAP	12	96	7
HLD	12	192	0	192
HLD	13	0	7	192
HLD	13	192	5	384
TAP	14	0	1
TAP	14	96	0
HLD	14	192	7	192
HLD	15	0	0	192
HLD	15	192	2	192
TAP	15	288	3
HLD	16	0	5	192
TAP	16	96	4
HLD	16	192	0	192
TAP	16	288	2
HLD	17	0	7	192
TAP	17	96	5
TAP	17	192	0
TAP	17	288	1
TAP	18	0	2
TAP	18	96	3
TAP	18	192	4
TAP	18	288	5
TAP	19	0	6
TAP	19	96	7
TAP	19	192	0
TAP	19	192	1
TAP	19	288	1
TAP	19	288	2
TAP	20	0	2
TAP	20	0	3
TAP	20	96	3
TAP	20	96	4
TAP	20	192	4
TAP	20	192	5
TAP	20	288	5
TAP	20	288	6
TAP	21	0	6
TAP	21	0	7
TAP	21	96	0
TAP	21	96	7
TAP	21	192	1
TAP	21	240	1
TAP	21	288	3
TAP	21	336	3
TAP	22	0	2
TAP	22	48	2
TAP	22	96	4
TAP	22	144	4
TAP	22	192	3
TAP	22	240	3
TAP	22	288	5
TAP	22	336	5
TAP	23	0	4
TAP	23	48	4
TAP	23	96	6
TAP	23	144	6
TAP	23	192	0
TAP	23	240	0
TAP	23	288	7
TAP	23	336	7
TAP	24	0	1
TAP	24	48	1
TAP	24	96	6
TAP	24	144	6
TAP	24	192	0
TAP	24	216	7
TAP	24	240	0
TAP	24	264	7
TAP	24	288	0
TAP	24	312	7
TAP	24	336	0
TAP	24	360	7
TAP	25	0	0
TAP	25	24	7
TAP	25	48	0
TAP	25	72	7
TAP	25	96	0
TAP	25	120	7
TAP	25	144	0
TAP	25	168	7
HLD	25	192	0	72
HLD	25	264	4	72
HLD	25	336	2	72
HLD	26	24	6	72
HLD	26	96	4	288
BRK	26	192	2
BRK	26	288	1
BST	27	0	0
SI_	27	0	0	96	48	4
TAP	27	192	5
TAP	27	240	5
TAP	27	288	1
TAP	27	336	1
STR	28	0	7
SCL	28	0	7	96	48	4
TAP	28	48	7
TAP	28	240	0
TAP	28	240	6
TAP	28	288	0
TAP	28	288	6
STR	29	0	2
SI_	29	0	2	96	48	7
STR	29	0	4
SI_	29	0	4	96	48	7
TAP	29	192	0
TAP	29	240	1
TAP	29	288	2
TAP	29	336	7
TAP	30	0	6
TAP	30	48	5
TAP	30	96	0
TAP	30	144	7
TAP	30	192	3
TAP	30	240	2
TAP	30	288	1
TAP	30	336	4
TAP	31	0	5
TAP	31	48	6
TAP	31	96	0
TAP	31	96	7
TAP	31	192	2
TAP	31	240	2
TAP	31	288	6
TAP	31	336	6
STR	32	0	0
SCR	32	0	0	96	48	3
TAP	32	48	0
TAP	32	192	0
TAP	32	240	6
TAP	32	288	2
TAP	32	336	4
STR	33	0	3
SI_	33	0	3	96	48	0
STR	33	0	5
SI_	33	0	5	96	48	0
TAP	33	192	7
TAP	33	240	6
TAP	33	288	5
TAP	33	336	0
TAP	34	0	1
TAP	34	48	2
TAP	34	96	7
TAP	34	144	0
TAP	34	192	4
TAP	34	240	5
TAP	34	288	6
TAP	34	336	3
TAP	35	0	2
TAP	35	48	1
TAP	35	96	0
TAP	35	96	7
TAP	35	192	2
TAP	35	192	6
TAP	35	288	1
TAP	35	288	5
STR	36	0	0
SCL	36	0	0	96	48	5
TAP	36	0	4
TAP	36	240	3
TAP	36	240	6
TAP	36	288	3
TAP	36	288	6
STR	37	0	1
SI_	37	0	1	96	48	4
STR	37	0	4
SI_	37	0	4	96	48	7
TAP	37	192	0
TAP	37	240	7
TAP	37	288	6
TAP	37	336	0
TAP	38	0	1
TAP	38	48	2
TAP	38	96	4
TAP	38	144	3
TAP	38	192	7
TAP	38	240	6
TAP	38	288	5
TAP	38	336	7
TAP	39	0	0
TAP	39	48	1
TAP	39	96	2
TAP	39	96	3
HLD	39	192	4	96
HLD	39	192	5	96
HLD	39	336	6	96
HLD	39	336	7	96
HLD	40	96	0	96
HLD	40	96	1	96
TAP	40	240	2
TAP	40	240	3
TAP	40	336	4
TAP	40	336	5
TAP	41	48	3
TAP	41	48	7
STR	41	96	3
SXR	41	96	3	96	288	0
STR	41	96	7
SXR	41	96	7	96	288	4
STR	42	192	5
SI_	42	192	5	96	48	7
TAP	42	288	3
STR	42	336	3
SI_	42	336	3	96	48	1
TAP	43	48	4
STR	43	96	4
SI_	43	96	4	96	48	0
HLD	43	192	2	432
TAP	44	240	3
TAP	44	288	1
TAP	44	288	4
TAP	44	336	5
TAP	45	0	3
TAP	45	0	6
TAP	45	48	7
BRK	45	96	0
BRK	45	96	6
TAP	45	192	1
TAP	45	216	2
TAP	45	240	3
HLD	46	0	5	144
HLD	46	144	3	144
HLD	46	288	1	144
HLD	47	48	7	144
TAP	47	192	6
TAP	47	216	5
TAP	47	240	4
HLD	47	336	3	144
HLD	48	96	1	144
HLD	48	240	7	144
TAP	49	0	6
TAP	49	48	3
TAP	49	48	4
TAP	49	96	2
TAP	49	96	5
TAP	49	192	7
TAP	49	216	6
TAP	49	240	5
HLD	50	0	0	144
HLD	50	144	2	144
HLD	50	288	4	144
HLD	51	48	6	144
TAP	51	192	7
TAP	51	216	0
TAP	51	240	1
HLD	52	0	7	144
HLD	52	144	5	144
HLD	52	288	3	144
HLD	53	48	1	144
TAP	53	192	0
TAP	53	216	7
TAP	53	240	6
TAP	54	0	3
HLD	54	0	4	576
TAP	54	72	3
TAP	54	144	5
TAP	54	216	5
TAP	54	288	2
TAP	54	360	2
TAP	55	48	6
TAP	55	120	6
TAP	55	192	1
TAP	55	216	2
TAP	55	240	3
HLD	56	0	0	576
TAP	56	0	7
TAP	56	72	7
TAP	56	144	1
TAP	56	216	1
TAP	56	288	6
TAP	56	360	6
TAP	57	48	2
TAP	57	120	2
TAP	57	192	5
TAP	57	216	4
TAP	57	240	3
HLD	58	0	4	576
TAP	58	0	5
TAP	58	72	5
TAP	58	144	3
TAP	58	216	3
TAP	58	288	6
TAP	58	360	6
TAP	59	48	2
TAP	59	120	2
TAP	59	192	7
TAP	59	216	6
TAP	59	240	5
TAP	60	0	1
TAP	60	72	2
TAP	60	144	3
TAP	60	216	4
TAP	60	288	5
TAP	60	360	6
TAP	61	48	0
TAP	61	48	7
TAP	61	96	0
TAP	61	96	7
TAP	61	192	4
HLD	61	192	5	288
TAP	61	264	3
TAP	61	336	2
TAP	62	24	1
TAP	62	96	0
HLD	62	192	2	288
TAP	62	192	3
TAP	62	264	4
TAP	62	336	5
TAP	63	24	6
TAP	63	96	7
TAP	63	192	3
HLD	63	192	4	432
TAP	63	264	5
TAP	63	336	2
TAP	64	24	6
TAP	64	96	1
TAP	64	168	7
TAP	64	240	0
TAP	64	312	2
TAP	64	312	6
BST	65	0	0
SF_	65	0	0	96	192	4
HLD	66	0	1	768
TAP	67	0	0
TAP	67	192	7
HLD	68	0	6	768
TAP	69	0	5
TAP	69	192	4
HLD	70	0	3	1536
TAP	71	0	2
TAP	71	192	1
TAP	72	0	0
TAP	72	192	7
TAP	73	0	6
TAP	73	192	5
TAP	74	0	4
TAP	74	192	2
TAP	74	192	5
TAP	75	0	1
TAP	75	0	6
BRK	75	192	0
BRK	75	192	7
TAP	77	0	2
TAP	77	0	7
TAP	77	96	1
TAP	77	96	6
STR	77	192	0
SCR	77	192	0	96	48	3
TAP	77	192	5
TAP	78	0	6
TAP	78	48	5
TAP	78	96	4
TAP	78	144	2
TAP	78	168	3
TAP	78	192	2
TAP	78	240	1
TAP	78	288	0
TAP	78	288	7
TAP	79	0	1
TAP	79	32	3
TAP	79	64	1
TAP	79	96	6
TAP	79	128	4
TAP	79	160	6
TAP	79	192	0
TAP	79	224	7
TAP	79	256	0
BRK	79	288	1
BRK	79	288	6
TAP	80	0	2
TAP	80	48	3
TAP	80	96	1
TAP	80	96	4
TAP	80	144	5
TAP	80	192	4
TAP	80	240	3
TAP	80	240	6
TAP	80	288	2
TAP	80	336	1
STR	81	0	7
SI_	81	0	7	96	48	3
TAP	81	48	7
STR	81	96	2
SCL	81	96	2	96	48	7
TAP	81	144	2
STR	81	192	4
SCR	81	192	4	96	48	7
TAP	81	240	4
TAP	82	0	1
TAP	82	48	2
TAP	82	96	3
TAP	82	144	5
TAP	82	168	4
TAP	82	192	5
TAP	82	240	3
TAP	82	288	2
TAP	82	336	1
TAP	83	0	7
TAP	83	48	5
TAP	83	96	0
TAP	83	144	2
STR	83	192	3
SI_	83	192	3	96	48	0
STR	83	192	4
SI_	83	192	4	96	48	7
TAP	84	0	1
TAP	84	48	0
TAP	84	96	2
TAP	84	96	7
TAP	84	144	6
TAP	84	192	7
TAP	84	240	0
TAP	84	240	5
TAP	84	288	4
TAP	84	336	3
HLD	85	0	4	96
HLD	85	0	6	96
HLD	85	144	1	96
HLD	85	144	3	96
TAP	85	288	0
TAP	85	288	7
BST	86	0	2
SI_	86	0	2	96	48	4
BST	86	96	1
SI_	86	96	1	96	48	5
BST	86	192	0
SI_	86	192	0	96	48	6
TAP	87	48	5
TAP	87	72	4
TAP	87	96	5
TAP	87	144	3
TAP	87	144	6
TAP	87	192	1
TAP	87	192	4
TAP	87	240	2
TAP	87	264	3
TAP	87	288	2
TAP	87	336	1
TAP	87	336	4
TAP	88	0	3
STR	88	0	6
SCL	88	0	6	96	48	3
STR	88	96	0
SCR	88	96	0	96	48	3
TAP	88	144	0
TAP	88	240	5
TAP	88	288	6
TAP	88	336	7
HLD	89	0	0	96
HLD	89	0	4	96
HLD	89	144	2	96
HLD	89	144	6	96
STR	89	288	0
SXL	89	288	0	96	96	1
STR	89	288	4
SXL	89	288	4	96	96	5
TAP	90	144	6
TAP	90	168	7
TAP	90	192	6
TAP	90	240	0
TAP	90	240	5
TAP	90	288	1
TAP	90	288	4
TAP	90	336	2
TAP	91	0	3
TAP	91	48	1
TAP	91	48	4
TAP	91	96	2
TAP	91	144	3
TAP	91	144	6
TAP	91	192	5
TAP	91	240	4
STR	91	288	3
SXR	91	288	3	96	96	2
STR	91	288	7
SXR	91	288	7	96	96	6
TAP	92	144	1
TAP	92	168	0
TAP	92	192	1
TAP	92	240	2
TAP	92	240	7
TAP	92	288	3
TAP	92	288	6
TAP	92	336	5
TAP	93	0	4
TAP	93	48	3
TAP	93	48	6
TAP	93	96	5
TAP	93	144	1
TAP	93	144	4
TAP	93	192	2
TAP	93	240	3
BRK	93	288	0
BRK	93	288	4
HLD	94	0	5	48
HLD	94	0	7	48
HLD	94	72	5	48
HLD	94	72	7	48
HLD	94	144	5	48
HLD	94	144	7	48
HLD	94	216	5	48
HLD	94	216	7	48
BRK	94	288	5
BRK	94	288	7
TAP	94	336	0
TAP	94	336	7
HLD	95	0	0	48
HLD	95	0	2	48
HLD	95	72	0	48
HLD	95	72	2	48
HLD	95	144	0	48
HLD	95	144	2	48
HLD	95	216	0	48
HLD	95	216	2	48
BRK	95	288	0
BRK	95	288	2
HLD	96	0	0	48
HLD	96	0	7	48
HLD	96	72	5	48
HLD	96	72	7	48
HLD	96	144	0	48
HLD	96	144	7	48
HLD	96	216	0	48
HLD	96	216	2	48
HLD	96	288	0	48
HLD	96	288	7	48
HLD	96	360	4	48
HLD	96	360	7	48
HLD	97	48	0	48
HLD	97	48	7	48
HLD	97	120	0	48
HLD	97	120	3	48
BST	97	192	0
SI_	97	192	0	96	480	4
BST	97	192	7
SI_	97	192	7	96	480	3

T_REC_TAP	373
T_REC_BRK	15
T_REC_XTP	0
T_REC_HLD	101
T_REC_XHO	0
T_REC_STR	26
T_REC_BST	7
T_REC_XST	0
T_REC_TTP	0
T_REC_THO	0
T_REC_SLD	33
T_REC_ALL	555
T_NUM_TAP	399
T_NUM_BRK	22
T_NUM_HLD	101
T_NUM_SLD	33
T_NUM_ALL	555
T_JUDGE_TAP	421
T_JUDGE_HLD	373
T_JUDGE_SLD	33
T_JUDGE_ALL	827
TTM_EACHPAIRS	95
TTM_SCR_TAP	199500
TTM_SCR_BRK	57200
TTM_SCR_HLD	101000
TTM_SCR_SLD	49500
TTM_SCR_ALL	407200
TTM_SCR_S	392850
TTM_SCR_SS	405000
TTM_RAT_ACV	10054

