VERSION	0.00.00	1.03.00
FES_MODE	0
BPM_DEF	177.000	182.000	182.000	177.000
MET_DEF	4	4
RESOLUTION	384
CLK_DEF	384
COMPATIBLE_CODE	MA2

BPM	0	0	177.000
BPM	9	192	182.000
BPM	9	192	182.000
MET	0	0	4	4
MET	8	0	4	6
MET	9	192	4	4
MET	64	192	4	6
MET	66	0	4	4

TAP	1	0	1
TAP	1	96	2
TAP	1	192	3
TAP	2	0	2
TAP	2	96	3
TAP	2	192	4
TAP	2	288	5
TAP	3	0	6
TAP	3	96	5
TAP	3	192	4
TAP	4	0	5
TAP	4	96	4
TAP	4	192	3
TAP	4	288	2
TAP	5	0	1
TAP	5	96	2
TAP	5	192	3
TAP	6	0	1
TAP	6	96	2
TAP	6	192	3
TAP	6	288	4
TAP	7	0	6
TAP	7	96	5
TAP	7	192	4
TAP	7	288	3
TAP	8	0	2
TAP	8	96	1
BRK	8	192	0
TAP	9	192	5
TAP	9	288	6
TAP	10	0	7
TAP	10	192	6
TAP	10	288	7
TAP	11	0	0
TAP	11	96	1
TAP	11	192	2
TAP	11	288	1
TAP	12	0	0
TAP	12	192	1
TAP	12	288	0
TAP	13	0	7
TAP	13	96	6
TAP	13	192	5
TAP	13	288	6
TAP	14	0	7
TAP	14	192	5
TAP	14	288	6
TAP	15	0	7
TAP	15	96	0
TAP	15	192	2
TAP	15	288	1
TAP	16	0	0
TAP	16	96	7
TAP	16	192	5
TAP	16	288	6
TAP	17	0	7
TAP	17	96	0
HLD	17	192	1	96
TAP	17	288	0
HLD	18	0	6	96
TAP	18	96	7
HLD	18	192	1	96
TAP	18	288	2
HLD	19	0	6	96
TAP	19	96	5
HLD	19	192	2	96
TAP	19	288	3
HLD	20	0	5	96
TAP	20	96	4
HLD	20	192	1	96
TAP	20	288	3
HLD	21	0	6	96
TAP	21	96	4
TAP	21	192	2
TAP	21	288	2
TAP	21	288	3
TAP	22	0	5
TAP	22	96	4
TAP	22	96	5
TAP	22	192	1
TAP	22	288	0
TAP	22	288	1
TAP	23	0	6
TAP	23	96	6
TAP	23	96	7
TAP	23	192	0
TAP	23	192	1
TAP	23	288	0
TAP	23	288	1
TAP	24	0	6
TAP	24	0	7
TAP	24	96	6
TAP	24	96	7
TAP	24	192	0
TAP	24	192	7
TAP	24	288	0
TAP	24	288	7
TAP	25	0	0
TAP	25	0	7
TAP	25	48	0
TAP	25	48	7
TAP	25	96	0
TAP	25	96	7
TAP	25	144	0
TAP	25	144	7
STR	25	192	0
SI_	25	192	0	96	96	3
STR	25	192	7
SI_	25	192	7	96	96	4
TAP	26	192	2
TAP	26	288	1
BRK	27	0	0
TAP	27	192	2
TAP	27	288	2
TAP	27	288	3
TAP	28	0	5
TAP	28	96	4
TAP	28	96	5
TAP	28	192	2
TAP	28	288	2
TAP	28	288	3
TAP	29	0	1
TAP	29	0	4
TAP	29	96	0
TAP	29	192	5
TAP	29	288	4
TAP	29	288	5
TAP	30	0	2
TAP	30	96	2
TAP	30	96	3
TAP	30	192	5
TAP	30	288	4
TAP	30	288	5
TAP	31	0	3
TAP	31	0	6
TAP	31	96	7
TAP	31	192	1
TAP	31	288	0
TAP	31	288	1
TAP	32	0	6
TAP	32	96	6
TAP	32	96	7
TAP	32	192	1
TAP	32	288	0
TAP	32	288	1
TAP	33	0	2
TAP	33	0	7
TAP	33	96	3
TAP	33	192	6
TAP	33	288	6
TAP	33	288	7
TAP	34	0	1
TAP	34	96	0
TAP	34	96	1
TAP	34	192	6
TAP	34	288	6
TAP	34	288	7
TAP	35	0	0
TAP	35	0	5
TAP	35	96	4
TAP	35	192	2
TAP	35	288	1
BRK	36	0	0
TAP	36	192	2
TAP	36	288	1
TAP	36	288	3
TAP	37	0	5
TAP	37	96	4
TAP	37	96	6
TAP	37	192	1
TAP	37	288	0
TAP	37	288	2
TAP	38	0	6
TAP	38	96	5
TAP	38	96	7
TAP	38	192	0
TAP	38	192	7
TAP	38	288	1
TAP	38	288	6
TAP	39	0	2
TAP	39	0	5
TAP	39	96	3
TAP	39	96	4
STR	39	192	3
SI_	39	192	3	96	96	0
STR	39	192	4
SI_	39	192	4	96	96	7
TAP	40	192	0
TAP	40	288	7
TAP	41	0	0
TAP	41	96	1
TAP	41	96	6
TAP	41	192	0
TAP	41	288	0
TAP	42	0	7
TAP	42	96	7
TAP	42	192	0
TAP	42	192	7
TAP	42	288	1
TAP	42	288	6
TAP	43	0	2
TAP	43	0	5
TAP	43	96	3
TAP	43	96	4
STR	43	192	3
SCL	43	192	3	96	480	4
HLD	45	192	3	192
TAP	45	192	4
HLD	46	0	2	144
HLD	46	144	1	144
HLD	46	288	0	144
HLD	47	48	7	144
HLD	47	192	6	144
HLD	47	336	5	144
HLD	48	96	4	144
STR	48	240	3
SI_	48	240	3	96	96	7
TAP	49	192	1
TAP	49	192	4
TAP	50	0	4
TAP	50	0	5
TAP	50	72	4
TAP	50	72	5
TAP	50	144	4
TAP	50	144	5
TAP	50	216	4
TAP	50	216	5
TAP	50	288	4
TAP	50	288	5
TAP	50	360	4
TAP	50	360	5
HLD	51	48	4	72
HLD	51	48	5	72
TAP	51	192	3
TAP	51	192	6
TAP	52	0	2
TAP	52	0	3
TAP	52	72	2
TAP	52	72	3
TAP	52	144	2
TAP	52	144	3
TAP	52	216	2
TAP	52	216	3
TAP	52	288	2
TAP	52	288	3
TAP	52	360	2
TAP	52	360	3
HLD	53	48	2	72
HLD	53	48	3	72
TAP	53	192	3
HLD	53	192	4	192
HLD	54	0	5	144
HLD	54	144	6	144
HLD	54	288	7	144
HLD	55	48	0	144
HLD	55	192	1	144
HLD	55	336	2	144
HLD	56	96	3	144
STR	56	240	4
SI_	56	240	4	96	96	0
TAP	57	192	2
TAP	57	192	7
TAP	58	0	6
TAP	58	0	7
TAP	58	72	6
TAP	58	72	7
TAP	58	144	6
TAP	58	144	7
TAP	58	216	6
TAP	58	216	7
TAP	58	288	6
TAP	58	288	7
TAP	58	360	6
TAP	58	360	7
HLD	59	48	6	72
HLD	59	48	7	72
TAP	59	192	0
TAP	59	192	5
TAP	60	0	0
TAP	60	0	1
TAP	60	72	0
TAP	60	72	1
TAP	60	144	0
TAP	60	144	1
TAP	60	216	0
TAP	60	216	1
TAP	60	288	0
TAP	60	288	1
TAP	60	360	0
TAP	60	360	1
TAP	61	48	2
TAP	61	48	7
TAP	61	192	4
TAP	61	192	5
TAP	61	264	4
TAP	61	264	5
TAP	61	336	4
TAP	61	336	5
HLD	62	24	4	72
HLD	62	24	5	72
TAP	62	192	2
TAP	62	192	3
TAP	62	264	2
TAP	62	264	3
TAP	62	336	2
TAP	62	336	3
HLD	63	24	2	72
HLD	63	24	3	72
TAP	63	192	3
TAP	63	192	4
TAP	63	264	3
TAP	63	264	4
TAP	63	336	2
TAP	63	336	5
TAP	64	24	2
TAP	64	24	5
TAP	64	96	1
TAP	64	96	6
TAP	64	168	1
TAP	64	168	6
TAP	64	240	0
TAP	64	240	7
TAP	64	312	0
TAP	64	312	7
BST	65	0	0
SCR	65	0	0	96	144	3
BST	65	0	7
SCL	65	0	7	96	144	4
TAP	66	0	2
TAP	66	96	1
TAP	66	192	0
TAP	66	192	7
TAP	67	0	1
TAP	67	96	0
TAP	67	192	7
TAP	67	288	6
TAP	68	0	5
TAP	68	96	6
TAP	68	192	0
TAP	68	192	7
TAP	69	0	6
TAP	69	96	7
TAP	69	192	0
TAP	69	288	1
TAP	70	0	0
TAP	70	0	7
TAP	70	96	1
TAP	70	96	6
TAP	70	192	2
TAP	70	192	5
TAP	71	0	3
TAP	71	0	4
TAP	71	96	2
TAP	71	96	5
TAP	71	192	1
TAP	71	192	6
TAP	71	288	0
TAP	71	288	7
TAP	72	0	1
TAP	72	96	2
TAP	72	192	3
TAP	72	288	4
TAP	73	0	6
TAP	73	96	5
TAP	73	192	4
TAP	73	288	3
TAP	74	0	1
TAP	74	96	2
TAP	74	192	3
TAP	74	288	4
TAP	75	0	5
TAP	75	96	6
BRK	75	192	0
BRK	75	192	7
TAP	77	0	2
TAP	77	96	1
BRK	77	192	0
TAP	78	0	2
TAP	78	0	3
TAP	78	96	1
TAP	78	96	4
TAP	78	192	5
TAP	78	240	5
TAP	78	288	5
TAP	79	0	2
TAP	79	96	2
TAP	79	96	3
TAP	79	192	1
TAP	79	192	4
TAP	79	288	0
TAP	80	0	4
TAP	80	0	5
TAP	80	96	3
TAP	80	96	6
TAP	80	192	2
TAP	80	240	2
TAP	80	288	2
TAP	81	0	5
TAP	81	96	4
TAP	81	96	5
TAP	81	192	3
TAP	81	192	6
TAP	81	288	7
TAP	82	0	0
TAP	82	0	1
TAP	82	96	2
TAP	82	96	7
TAP	82	192	6
TAP	82	240	6
TAP	82	288	6
TAP	83	0	1
TAP	83	96	0
TAP	83	96	1
TAP	83	192	2
TAP	83	192	7
TAP	83	288	3
TAP	84	0	6
TAP	84	0	7
TAP	84	96	0
TAP	84	96	5
TAP	84	192	1
TAP	84	240	1
TAP	84	288	1
TAP	85	0	6
TAP	85	96	6
TAP	85	96	7
TAP	85	192	0
TAP	85	192	5
TAP	85	288	4
TAP	86	0	2
TAP	86	96	1
BRK	86	192	0
TAP	87	0	2
TAP	87	0	3
TAP	87	96	1
TAP	87	96	4
TAP	87	192	4
TAP	87	192	5
TAP	87	288	3
TAP	87	288	6
TAP	88	0	0
TAP	88	0	1
TAP	88	96	2
TAP	88	96	7
TAP	88	192	6
TAP	88	192	7
TAP	88	288	0
TAP	88	288	5
TAP	89	0	0
TAP	89	0	7
TAP	89	96	1
TAP	89	96	6
TAP	89	192	2
TAP	89	192	5
TAP	89	288	3
TAP	89	288	4
STR	90	0	3
SI_	90	0	3	96	96	0
STR	90	0	4
SI_	90	0	4	96	96	7
TAP	91	0	0
TAP	91	96	7
TAP	91	192	0
TAP	91	288	1
TAP	91	288	6
TAP	92	0	0
TAP	92	48	0
TAP	92	96	0
TAP	92	192	7
TAP	92	240	7
TAP	92	288	7
TAP	93	0	0
TAP	93	0	7
TAP	93	96	1
TAP	93	96	6
TAP	93	192	2
TAP	93	192	5
TAP	93	288	3
TAP	93	288	4
TAP	94	0	4
TAP	94	0	6
TAP	94	72	4
TAP	94	72	6
TAP	94	144	4
TAP	94	144	6
HLD	94	216	4	72
HLD	94	216	6	72
TAP	95	0	1
TAP	95	0	3
TAP	95	72	1
TAP	95	72	3
TAP	95	144	1
TAP	95	144	3
HLD	95	216	1	72
HLD	95	216	3	72
TAP	96	0	3
TAP	96	0	4
TAP	96	72	3
TAP	96	72	4
TAP	96	144	2
TAP	96	144	5
TAP	96	216	2
TAP	96	216	5
TAP	96	288	1
TAP	96	288	6
TAP	96	360	1
TAP	96	360	6
TAP	97	48	0
TAP	97	48	7
TAP	97	120	0
TAP	97	120	7
BRK	97	192	0
BRK	97	192	7

T_REC_TAP	444
T_REC_BRK	9
T_REC_XTP	0
T_REC_HLD	38
T_REC_XHO	0
T_REC_STR	9
T_REC_BST	2
T_REC_XST	0
T_REC_TTP	0
T_REC_THO	0
T_REC_SLD	11
T_REC_ALL	513
T_NUM_TAP	453
T_NUM_BRK	11
T_NUM_HLD	38
T_NUM_SLD	11
T_NUM_ALL	513
T_JUDGE_TAP	464
T_JUDGE_HLD	94
T_JUDGE_SLD	11
T_JUDGE_ALL	569
TTM_EACHPAIRS	157
TTM_SCR_TAP	226500
TTM_SCR_BRK	28600
TTM_SCR_HLD	38000
TTM_SCR_SLD	16500
TTM_SCR_ALL	309600
TTM_SCR_S	299250
TTM_SCR_SS	308500
TTM_RAT_ACV	10035

