VERSION	0.00.00	1.03.00
FES_MODE	0
BPM_DEF	177.000	182.000	182.000	177.000
MET_DEF	4	4
RESOLUTION	384
CLK_DEF	384
COMPATIBLE_CODE	MA2

BPM	0	0	177.000
BPM	9	192	182.000
BPM	9	192	182.000
MET	0	0	4	4
MET	8	0	4	6
MET	9	192	4	4
MET	63	192	4	6
MET	65	0	4	4

TAP	1	0	0
TAP	1	192	0
TAP	2	0	0
TAP	3	0	1
TAP	3	192	1
TAP	4	0	1
TAP	5	0	2
TAP	5	192	2
TAP	6	0	2
TAP	7	0	3
TAP	7	192	3
TAP	8	0	3
TAP	8	192	3
TAP	8	192	4
TAP	9	192	4
TAP	10	0	4
TAP	10	192	4
TAP	11	192	5
TAP	12	0	5
TAP	12	192	5
TAP	13	192	6
TAP	14	0	6
TAP	14	192	6
TAP	15	192	7
TAP	16	0	7
TAP	16	192	7
TAP	17	192	7
TAP	17	288	7
TAP	18	0	7
TAP	18	192	6
TAP	18	288	6
TAP	19	0	6
TAP	19	192	5
TAP	19	288	5
TAP	20	0	5
TAP	20	192	4
TAP	20	288	4
TAP	21	0	4
TAP	21	192	3
TAP	21	288	3
TAP	22	0	3
TAP	22	192	2
TAP	22	288	2
TAP	23	0	2
TAP	23	192	1
TAP	23	288	1
TAP	24	0	1
TAP	24	192	0
TAP	24	288	0
TAP	25	0	0
TAP	25	192	0
TAP	25	192	7
TAP	26	192	1
TAP	26	192	6
TAP	26	288	1
TAP	26	288	6
TAP	27	0	1
TAP	27	0	6
TAP	27	192	4
TAP	27	288	4
TAP	28	0	5
TAP	28	96	5
TAP	28	192	6
TAP	28	288	6
TAP	29	0	7
TAP	29	192	0
TAP	29	288	0
TAP	30	0	1
TAP	30	96	1
TAP	30	192	2
TAP	30	288	2
TAP	31	0	2
TAP	31	0	3
TAP	31	192	3
TAP	31	288	3
TAP	32	0	2
TAP	32	96	2
TAP	32	192	1
TAP	32	288	1
TAP	33	0	0
TAP	33	192	7
TAP	33	288	7
TAP	34	0	6
TAP	34	96	6
TAP	34	192	5
TAP	34	288	5
TAP	35	0	4
TAP	35	0	5
TAP	35	192	3
TAP	35	192	4
TAP	35	288	3
TAP	35	288	4
TAP	36	0	3
TAP	36	0	4
TAP	36	192	3
TAP	36	288	3
TAP	37	0	2
TAP	37	96	2
TAP	37	192	1
TAP	37	288	1
TAP	38	0	0
TAP	38	192	7
TAP	38	288	7
TAP	39	0	6
TAP	39	96	6
HLD	39	192	5	576
HLD	40	192	4	192
HLD	41	192	2	576
HLD	42	192	3	192
BRK	43	192	1
STR	45	192	0
SI_	45	192	0	96	288	4
STR	47	192	7
SI_	47	192	7	96	288	3
STR	49	192	1
SI_	49	192	1	96	288	5
STR	51	192	6
SI_	51	192	6	96	288	2
TAP	53	192	0
TAP	53	192	7
HLD	54	0	1	144
HLD	54	288	1	144
TAP	55	192	0
TAP	55	192	7
HLD	56	0	6	144
HLD	56	288	6	144
STR	57	192	0
SI_	57	192	0	96	288	3
STR	57	192	7
SI_	57	192	7	96	288	4
TAP	59	192	3
TAP	59	192	4
HLD	60	0	3	432
HLD	60	0	4	432
TAP	61	192	3
TAP	61	264	3
TAP	61	336	3
TAP	62	24	3
TAP	62	192	4
TAP	62	264	4
TAP	62	336	4
TAP	63	24	4
TAP	63	192	3
TAP	63	264	3
TAP	63	336	3
TAP	64	24	3
TAP	64	96	4
TAP	64	168	4
TAP	64	240	4
TAP	64	312	4
TAP	65	0	3
TAP	65	0	4
TAP	66	0	0
TAP	66	96	0
TAP	66	192	1
TAP	66	288	1
TAP	67	0	2
TAP	67	96	2
TAP	67	192	2
TAP	67	192	3
TAP	68	0	4
TAP	68	96	4
TAP	68	192	5
TAP	68	288	5
TAP	69	0	6
TAP	69	96	6
TAP	69	192	6
TAP	69	192	7
TAP	70	0	7
TAP	70	96	7
TAP	70	192	6
TAP	70	288	6
TAP	71	0	5
TAP	71	96	5
TAP	71	192	4
TAP	71	192	5
TAP	72	0	3
TAP	72	96	3
TAP	72	192	2
TAP	72	288	2
TAP	73	0	1
TAP	73	96	1
TAP	73	192	0
TAP	73	288	0
TAP	74	0	7
TAP	74	96	7
TAP	74	192	6
TAP	74	288	6
TAP	75	0	5
TAP	75	96	5
STR	75	192	4
SI_	75	192	4	96	288	0
TAP	78	0	0
TAP	78	96	0
TAP	78	192	1
TAP	78	288	1
TAP	79	0	0
TAP	79	0	1
TAP	79	96	0
TAP	79	96	1
TAP	79	192	0
TAP	79	192	1
TAP	80	0	7
TAP	80	96	7
TAP	80	192	6
TAP	80	288	6
TAP	81	0	6
TAP	81	0	7
TAP	81	96	6
TAP	81	96	7
TAP	81	192	6
TAP	81	192	7
TAP	82	0	4
TAP	82	96	4
TAP	82	192	5
TAP	82	288	5
TAP	83	0	4
TAP	83	0	5
TAP	83	96	4
TAP	83	96	5
TAP	83	192	4
TAP	83	192	5
TAP	84	0	3
TAP	84	96	3
TAP	84	192	2
TAP	84	288	2
TAP	85	0	2
TAP	85	0	3
TAP	85	96	2
TAP	85	96	3
TAP	85	192	2
TAP	85	192	3
TAP	86	0	2
TAP	86	96	1
BRK	86	192	0
TAP	87	0	6
TAP	87	96	6
TAP	87	192	5
TAP	87	288	5
TAP	88	0	4
TAP	88	96	4
TAP	88	192	3
TAP	88	288	3
TAP	89	0	2
TAP	89	96	2
TAP	89	192	1
TAP	89	288	1
TAP	90	0	0
TAP	90	192	1
TAP	90	288	1
TAP	91	0	2
TAP	91	96	2
TAP	91	192	3
TAP	91	288	3
TAP	92	0	4
TAP	92	96	4
TAP	92	192	5
TAP	92	288	5
TAP	93	0	6
TAP	93	96	6
TAP	93	192	7
TAP	94	0	0
TAP	94	72	0
TAP	94	144	0
TAP	94	216	0
TAP	95	0	7
TAP	95	72	7
TAP	95	144	7
TAP	95	216	7
TAP	96	0	0
TAP	96	72	0
TAP	96	144	0
TAP	96	216	0
TAP	96	288	7
TAP	96	360	7
TAP	97	48	7
TAP	97	120	7
TAP	97	192	0
TAP	97	192	7

T_REC_TAP	253
T_REC_BRK	2
T_REC_XTP	0
T_REC_HLD	10
T_REC_XHO	0
T_REC_STR	7
T_REC_BST	0
T_REC_XST	0
T_REC_TTP	0
T_REC_THO	0
T_REC_SLD	7
T_REC_ALL	279
T_NUM_TAP	260
T_NUM_BRK	2
T_NUM_HLD	10
T_NUM_SLD	7
T_NUM_ALL	279
T_JUDGE_TAP	262
T_JUDGE_HLD	62
T_JUDGE_SLD	7
T_JUDGE_ALL	331
TTM_EACHPAIRS	32
TTM_SCR_TAP	130000
TTM_SCR_BRK	5200
TTM_SCR_HLD	10000
TTM_SCR_SLD	10500
TTM_SCR_ALL	155700
TTM_SCR_S	150850
TTM_SCR_SS	155500
TTM_RAT_ACV	10012

