VERSION	0.00.00	1.03.00
FES_MODE	0
BPM_DEF	175.000	175.000	175.000	175.000
MET_DEF	4	4
RESOLUTION	384
CLK_DEF	384
COMPATIBLE_CODE	MA2

BPM	0	0	175.000

STR	1	0	3
SCL	1	0	3	96	96	0
STR	1	192	7
SCL	1	192	7	96	96	4
STR	2	0	3
SCL	2	0	3	96	96	0
STR	2	192	7
SCL	2	192	7	96	96	4
STR	3	0	2
SCL	3	0	2	96	96	7
STR	3	192	6
SCL	3	192	6	96	96	3
STR	4	0	2
SCL	4	0	2	96	96	7
STR	4	192	6
SCL	4	192	6	96	96	3
STR	5	0	2
SCL	5	0	2	96	48	7
TAP	5	96	4
STR	5	192	6
SCL	5	192	6	96	48	3
TAP	5	288	0
STR	6	0	2
SCL	6	0	2	96	48	7
TAP	6	96	4
STR	6	192	6
SCL	6	192	6	96	48	3
TAP	6	288	0
STR	7	0	2
SCL	7	0	2	96	96	6
STR	7	96	6
SCL	7	96	6	96	96	2
STR	7	192	2
SCL	7	192	2	96	96	6
STR	7	288	6
SCL	7	288	6	96	96	2
STR	8	0	2
SCL	8	0	2	96	96	6
STR	8	96	6
SCL	8	96	6	96	96	2
TAP	8	192	2
BRK	8	288	6
STR	9	0	4
SCR	9	0	4	96	48	7
TAP	9	48	4
TAP	9	96	1
TAP	9	144	1
HLD	9	192	2	72
TAP	9	264	3
TAP	9	288	2
TAP	9	336	1
TAP	9	336	4
STR	10	0	3
SCL	10	0	3	96	48	0
TAP	10	48	3
TAP	10	96	6
TAP	10	144	6
HLD	10	192	5	72
TAP	10	264	4
TAP	10	288	5
TAP	10	336	3
TAP	10	336	6
STR	11	0	4
SCR	11	0	4	96	48	7
TAP	11	48	4
TAP	11	96	1
TAP	11	144	1
HLD	11	192	2	72
TAP	11	264	3
TAP	11	288	2
TAP	11	336	1
TAP	11	336	4
STR	12	0	3
SCL	12	0	3	96	48	0
TAP	12	48	3
TAP	12	96	6
TAP	12	144	6
HLD	12	192	5	72
TAP	12	264	4
TAP	12	288	5
TAP	12	336	3
TAP	12	336	6
STR	13	0	4
SCR	13	0	4	96	48	7
TAP	13	48	4
TAP	13	96	2
TAP	13	144	2
STR	13	192	3
SCL	13	192	3	96	48	0
TAP	13	240	3
TAP	13	288	5
TAP	13	336	5
STR	14	0	4
SCR	14	0	4	96	48	7
TAP	14	48	4
TAP	14	96	2
TAP	14	144	2
STR	14	192	3
SCL	14	192	3	96	48	0
TAP	14	240	3
TAP	14	288	5
TAP	14	336	5
STR	15	0	0
SI_	15	0	0	96	48	4
STR	15	48	7
SI_	15	48	7	96	48	3
TAP	15	96	0
TAP	15	144	7
STR	15	192	1
SI_	15	192	1	96	48	5
STR	15	240	0
SI_	15	240	0	96	48	4
TAP	15	288	1
TAP	15	336	0
STR	16	0	7
SI_	16	0	7	96	48	3
STR	16	48	6
SI_	16	48	6	96	48	2
TAP	16	96	7
TAP	16	144	6
STR	16	192	0
SI_	16	192	0	96	48	2
SI_	16	192	0	96	48	4
BRK	16	288	0
TAP	17	0	5
TAP	17	24	4
TAP	17	48	5
TAP	17	96	2
TAP	17	120	3
TAP	17	144	2
STR	17	192	5
SUR	17	192	5	96	48	1
TAP	17	216	4
TAP	17	240	5
TAP	18	0	2
TAP	18	24	3
TAP	18	48	2
TAP	18	96	5
TAP	18	120	4
TAP	18	144	5
STR	18	192	2
SUL	18	192	2	96	48	6
TAP	18	216	3
TAP	18	240	2
TAP	19	0	5
TAP	19	24	4
TAP	19	48	5
TAP	19	96	2
TAP	19	120	3
TAP	19	144	2
STR	19	192	5
SCR	19	192	5	96	48	0
TAP	19	216	4
TAP	19	240	5
TAP	20	0	2
TAP	20	24	3
TAP	20	48	1
TAP	20	96	5
TAP	20	120	4
TAP	20	144	6
TAP	20	192	3
TAP	20	192	4
BRK	20	288	0
BRK	20	288	7
TAP	21	0	2
TAP	21	24	3
TAP	21	48	2
TAP	21	96	5
TAP	21	120	4
TAP	21	144	5
STR	21	192	2
SUL	21	192	2	96	48	6
TAP	21	216	3
TAP	21	240	2
TAP	22	0	5
TAP	22	24	4
TAP	22	48	5
TAP	22	96	2
TAP	22	120	3
TAP	22	144	2
STR	22	192	5
SUR	22	192	5	96	48	1
TAP	22	216	4
TAP	22	240	5
TAP	23	0	2
TAP	23	24	3
TAP	23	48	2
TAP	23	96	5
TAP	23	120	4
TAP	23	144	5
STR	23	192	2
SUL	23	192	2	96	48	6
TAP	23	216	3
TAP	23	240	2
TAP	24	0	5
TAP	24	24	4
TAP	24	48	6
TAP	24	72	3
STR	24	96	6
SI_	24	96	6	96	48	3
STR	24	192	2
SI_	24	192	2	96	48	7
BRK	24	288	5
HLD	25	0	1	48
HLD	25	0	5	48
HLD	25	72	2	48
HLD	25	72	6	48
HLD	25	144	1	48
HLD	25	144	5	48
HLD	25	216	0	48
HLD	25	216	4	48
TAP	25	288	0
TAP	25	304	1
TAP	25	320	2
TAP	25	336	3
HLD	26	0	2	48
HLD	26	0	6	48
HLD	26	72	1	48
HLD	26	72	5	48
HLD	26	144	2	48
HLD	26	144	6	48
HLD	26	216	3	48
HLD	26	216	7	48
TAP	26	288	7
TAP	26	304	6
TAP	26	320	5
TAP	26	336	4
HLD	27	0	1	48
HLD	27	0	5	48
HLD	27	72	2	48
HLD	27	72	6	48
HLD	27	144	1	48
HLD	27	144	5	48
HLD	27	216	0	48
HLD	27	216	4	48
TAP	27	288	0
TAP	27	304	1
TAP	27	320	2
TAP	27	336	3
HLD	28	0	2	48
HLD	28	0	6	48
HLD	28	72	1	48
HLD	28	72	5	48
HLD	28	144	2	48
HLD	28	144	6	48
HLD	28	216	3	48
HLD	28	216	7	48
TAP	28	288	7
TAP	28	304	6
TAP	28	320	5
TAP	28	336	4
TAP	29	0	1
TAP	29	0	3
TAP	29	48	2
TAP	29	96	4
TAP	29	96	6
TAP	29	144	5
TAP	29	192	1
TAP	29	192	3
TAP	29	240	2
TAP	29	288	3
TAP	29	312	4
TAP	29	336	3
TAP	30	0	4
TAP	30	0	6
TAP	30	48	5
TAP	30	96	1
TAP	30	96	3
TAP	30	144	2
TAP	30	192	4
TAP	30	192	6
TAP	30	240	5
TAP	30	288	4
TAP	30	312	3
TAP	30	336	4
TAP	31	0	0
TAP	31	0	2
TAP	31	48	1
TAP	31	96	5
TAP	31	96	7
TAP	31	144	6
TAP	31	192	0
TAP	31	192	2
TAP	31	240	1
TAP	31	288	3
TAP	31	312	4
TAP	31	336	3
TAP	32	0	6
TAP	32	24	7
TAP	32	48	6
TAP	32	72	7
TAP	32	96	5
TAP	32	120	0
TAP	32	144	5
TAP	32	168	0
TAP	32	192	4
TAP	32	216	1
TAP	32	240	4
TAP	32	264	1
BST	32	288	2
SCL	32	288	2	96	288	4
BST	32	288	3
SUL	32	288	3	96	288	4
STR	34	0	3
SI_	34	0	3	96	48	1
TAP	34	0	4
TAP	34	96	7
TAP	34	144	7
STR	34	192	3
SI_	34	192	3	96	48	1
TAP	34	192	7
TAP	34	240	7
TAP	34	288	7
TAP	34	336	7
STR	35	0	3
SI_	35	0	3	96	48	1
TAP	35	0	7
STR	35	96	4
SXL	35	96	4	96	144	0
STR	35	192	3
SI_	35	192	3	96	48	1
TAP	36	0	3
STR	36	0	4
SI_	36	0	4	96	48	6
TAP	36	96	0
TAP	36	144	0
TAP	36	192	0
STR	36	192	4
SI_	36	192	4	96	48	6
TAP	36	240	0
TAP	36	288	0
TAP	36	336	0
TAP	37	0	0
STR	37	0	4
SI_	37	0	4	96	48	6
STR	37	96	3
SXR	37	96	3	96	144	7
STR	37	192	4
SI_	37	192	4	96	48	6
STR	38	0	3
SI_	38	0	3	96	48	1
TAP	38	0	4
TAP	38	96	7
TAP	38	144	7
STR	38	192	3
SI_	38	192	3	96	48	1
TAP	38	192	7
TAP	38	240	7
TAP	38	288	7
TAP	38	336	7
STR	39	0	3
SI_	39	0	3	96	48	1
TAP	39	0	7
STR	39	96	4
SXL	39	96	4	96	144	0
STR	39	192	3
SI_	39	192	3	96	48	1
TAP	40	0	3
STR	40	0	4
SI_	40	0	4	96	48	6
TAP	40	96	0
TAP	40	144	0
TAP	40	192	0
STR	40	192	4
SI_	40	192	4	96	48	6
TAP	40	240	0
TAP	40	288	0
TAP	40	336	0
TAP	41	0	0
STR	41	0	4
SI_	41	0	4	96	48	6
STR	41	96	2
SI_	41	96	2	96	48	0
STR	41	192	3
SI_	41	192	3	96	48	7
TAP	42	0	2
STR	42	0	3
SI_	42	0	3	96	48	5
TAP	42	96	7
TAP	42	144	7
STR	42	192	3
SI_	42	192	3	96	48	5
TAP	42	192	7
TAP	42	240	7
TAP	42	288	7
TAP	42	336	7
STR	43	0	3
SI_	43	0	3	96	48	5
TAP	43	0	7
STR	43	96	2
SXR	43	96	2	96	144	6
STR	43	192	3
SI_	43	192	3	96	48	5
STR	44	0	4
SI_	44	0	4	96	48	2
TAP	44	0	5
TAP	44	96	0
TAP	44	144	0
TAP	44	192	0
STR	44	192	4
SI_	44	192	4	96	48	2
TAP	44	240	0
TAP	44	288	0
TAP	44	336	0
TAP	45	0	0
STR	45	0	4
SI_	45	0	4	96	48	2
STR	45	96	5
SXL	45	96	5	96	144	1
STR	45	192	4
SI_	45	192	4	96	48	2
TAP	46	0	2
STR	46	0	3
SI_	46	0	3	96	48	5
TAP	46	96	7
TAP	46	144	7
STR	46	192	3
SI_	46	192	3	96	48	5
HLD	46	192	7	288
STR	47	0	3
SI_	47	0	3	96	48	5
HLD	47	192	0	96
STR	47	192	3
SI_	47	192	3	96	48	5
STR	48	0	4
SI_	48	0	4	96	48	2
HLD	48	0	7	96
STR	48	192	4
SI_	48	192	4	96	48	2
HLD	48	192	6	96
STR	49	0	4
SI_	49	0	4	96	48	2
TAP	49	0	5
TAP	49	96	5
TAP	49	144	5
TAP	49	192	4
TAP	49	192	7
TAP	49	240	6
BRK	49	288	3
BRK	49	288	5
TAP	50	0	1
TAP	50	0	4
TAP	50	48	2
TAP	50	96	3
TAP	50	96	6
TAP	50	144	5
TAP	50	192	1
TAP	50	192	4
TAP	50	240	2
TAP	50	288	3
TAP	50	288	6
TAP	50	336	5
TAP	51	0	1
STR	51	0	4
SI_	51	0	4	96	48	0
TAP	51	48	4
STR	51	96	3
SXR	51	96	3	96	144	7
TAP	51	144	3
STR	51	192	4
SI_	51	192	4	96	48	6
TAP	51	240	4
TAP	52	0	3
TAP	52	0	6
TAP	52	48	5
TAP	52	96	1
TAP	52	96	4
TAP	52	144	2
TAP	52	192	3
TAP	52	192	6
TAP	52	240	5
TAP	52	288	1
TAP	52	288	4
TAP	52	336	2
STR	53	0	3
SI_	53	0	3	96	48	7
TAP	53	0	6
TAP	53	48	3
STR	53	96	4
SXL	53	96	4	96	144	0
TAP	53	144	4
STR	53	192	3
SI_	53	192	3	96	48	1
TAP	53	240	3
TAP	54	0	1
TAP	54	0	4
TAP	54	48	2
TAP	54	96	3
TAP	54	96	6
TAP	54	144	5
TAP	54	192	1
TAP	54	192	4
TAP	54	240	2
TAP	54	288	3
TAP	54	288	6
TAP	54	336	5
TAP	55	0	1
STR	55	0	4
SI_	55	0	4	96	48	0
TAP	55	48	4
STR	55	96	3
SXR	55	96	3	96	144	7
TAP	55	144	3
STR	55	192	4
SI_	55	192	4	96	48	6
TAP	55	240	4
TAP	56	0	3
TAP	56	0	6
TAP	56	48	5
TAP	56	96	1
TAP	56	96	4
TAP	56	144	2
TAP	56	192	3
TAP	56	192	6
TAP	56	240	5
TAP	56	288	1
TAP	56	288	4
TAP	56	336	2
STR	57	0	3
SI_	57	0	3	96	48	7
TAP	57	0	6
TAP	57	48	3
STR	57	96	4
SXL	57	96	4	96	144	0
TAP	57	144	4
STR	57	192	3
SI_	57	192	3	96	48	1
TAP	57	240	3
TAP	58	0	2
TAP	58	0	7
TAP	58	48	6
TAP	58	96	0
TAP	58	96	5
TAP	58	144	1
TAP	58	192	2
TAP	58	192	7
TAP	58	240	6
TAP	58	288	0
TAP	58	288	5
TAP	58	336	1
STR	59	0	2
SI_	59	0	2	96	48	6
TAP	59	0	7
TAP	59	48	2
STR	59	96	5
SXR	59	96	5	96	144	1
TAP	59	144	5
STR	59	192	0
SI_	59	192	0	96	48	6
TAP	59	240	0
TAP	60	0	0
TAP	60	0	5
TAP	60	48	1
TAP	60	96	2
TAP	60	96	7
TAP	60	144	6
TAP	60	192	0
TAP	60	192	5
TAP	60	240	1
TAP	60	288	2
TAP	60	288	7
TAP	60	336	6
TAP	61	0	0
STR	61	0	5
SI_	61	0	5	96	48	1
TAP	61	48	5
STR	61	96	2
SXL	61	96	2	96	144	6
TAP	61	144	2
STR	61	192	7
SI_	61	192	7	96	48	1
TAP	61	240	7
TAP	62	0	7
TAP	62	48	7
TAP	62	96	7
STR	62	144	7
SLR	62	144	7	96	288	4
HLD	62	192	7	384
TAP	63	192	6
STR	63	288	1
SXR	63	288	1	96	96	1
TAP	63	288	4
STR	64	0	1
SCR	64	0	1	96	48	4
STR	64	192	6
SCL	64	192	6	96	48	3
STR	64	192	7
SCR	64	192	7	96	48	2
STR	65	0	0
SCL	65	0	0	96	48	5
STR	65	0	1
SCR	65	0	1	96	48	4
STR	65	192	0
SCR	65	192	0	96	48	3
STR	65	192	7
SI_	65	192	7	96	48	4
HLD	66	0	0	384
TAP	66	96	1
TAP	66	144	1
TAP	66	192	1
TAP	66	240	1
STR	66	288	1
SUR	66	288	1	96	48	6
TAP	66	336	1
TAP	67	0	1
STR	67	96	0
SI_	67	96	0	96	48	3
STR	67	96	7
SI_	67	96	7	96	48	4
TAP	67	192	0
TAP	67	192	7
BRK	67	288	1
BRK	67	288	6
STR	68	0	3
SCL	68	0	3	96	48	0
TAP	68	48	3
TAP	68	96	6
TAP	68	144	6
HLD	68	192	7	72
TAP	68	264	6
TAP	68	288	7
TAP	68	336	0
TAP	68	336	5
STR	69	0	4
SCR	69	0	4	96	48	7
TAP	69	48	4
TAP	69	96	1
TAP	69	144	1
HLD	69	192	0	72
TAP	69	264	1
TAP	69	288	0
TAP	69	336	2
TAP	69	336	7
STR	70	0	3
SCL	70	0	3	96	48	0
TAP	70	48	3
TAP	70	96	6
TAP	70	144	6
HLD	70	192	7	72
TAP	70	264	6
TAP	70	288	7
TAP	70	336	0
TAP	70	336	5
STR	71	0	4
SCR	71	0	4	96	48	7
TAP	71	48	4
TAP	71	96	1
TAP	71	144	1
HLD	71	192	0	72
TAP	71	264	1
TAP	71	288	0
TAP	71	336	2
TAP	71	336	7
STR	72	0	3
SCL	72	0	3	96	48	0
TAP	72	48	3
TAP	72	96	5
TAP	72	144	5
STR	72	192	4
SCR	72	192	4	96	48	7
TAP	72	240	4
TAP	72	288	2
TAP	72	336	2
STR	73	0	3
SCL	73	0	3	96	48	0
TAP	73	48	3
TAP	73	96	5
TAP	73	144	5
STR	73	192	4
SCR	73	192	4	96	48	7
TAP	73	240	4
TAP	73	288	2
TAP	73	336	2
STR	74	0	7
SI_	74	0	7	96	48	3
STR	74	48	0
SI_	74	48	0	96	48	4
TAP	74	96	7
TAP	74	144	0
STR	74	192	6
SI_	74	192	6	96	48	2
STR	74	240	7
SI_	74	240	7	96	48	3
TAP	74	288	6
TAP	74	336	7
STR	75	0	0
SI_	75	0	0	96	48	4
STR	75	48	1
SI_	75	48	1	96	48	5
TAP	75	96	0
TAP	75	144	1
STR	75	192	7
SI_	75	192	7	96	48	3
SI_	75	192	7	96	48	5
BRK	75	288	7
TAP	76	0	6
TAP	76	24	6
TAP	76	48	7
TAP	76	96	6
TAP	76	120	6
TAP	76	144	0
STR	76	192	6
SUL	76	192	6	96	48	2
TAP	76	216	6
TAP	76	240	1
TAP	77	0	1
TAP	77	24	1
TAP	77	48	0
TAP	77	96	1
TAP	77	120	1
TAP	77	144	7
STR	77	192	1
SUR	77	192	1	96	48	5
TAP	77	216	1
TAP	77	240	6
TAP	78	0	6
TAP	78	24	6
TAP	78	48	7
TAP	78	96	6
TAP	78	120	6
TAP	78	144	0
STR	78	192	6
SCL	78	192	6	96	48	3
TAP	78	216	6
TAP	78	240	1
TAP	79	0	1
TAP	79	24	3
TAP	79	48	2
TAP	79	96	6
TAP	79	120	4
TAP	79	144	5
TAP	79	192	3
TAP	79	192	4
BRK	79	288	0
BRK	79	288	7
TAP	80	0	1
TAP	80	24	1
TAP	80	48	0
TAP	80	96	1
TAP	80	120	1
TAP	80	144	3
STR	80	192	1
SUR	80	192	1	96	48	5
TAP	80	216	1
TAP	80	240	5
TAP	81	0	6
TAP	81	24	6
TAP	81	48	7
TAP	81	96	6
TAP	81	120	6
TAP	81	144	4
STR	81	192	6
SUL	81	192	6	96	48	2
TAP	81	216	6
TAP	81	240	2
TAP	82	0	1
TAP	82	24	1
TAP	82	48	0
TAP	82	96	1
TAP	82	120	1
TAP	82	144	3
STR	82	192	1
SCL	82	192	1	96	48	6
TAP	82	216	1
TAP	82	240	5
TAP	83	0	5
TAP	83	24	4
TAP	83	48	6
TAP	83	72	3
STR	83	96	6
SI_	83	96	6	96	48	3
STR	83	192	2
SI_	83	192	2	96	48	7
BRK	83	288	5
HLD	84	0	2	48
HLD	84	0	6	48
HLD	84	72	0	48
HLD	84	72	4	48
HLD	84	144	2	48
HLD	84	144	6	48
HLD	84	216	0	48
HLD	84	216	4	48
TAP	84	288	0
TAP	84	304	1
TAP	84	320	2
TAP	84	336	3
HLD	85	0	1	48
HLD	85	0	5	48
HLD	85	72	3	48
HLD	85	72	7	48
HLD	85	144	1	48
HLD	85	144	5	48
HLD	85	216	3	48
HLD	85	216	7	48
TAP	85	288	7
TAP	85	304	6
TAP	85	320	5
TAP	85	336	4
HLD	86	0	2	48
HLD	86	0	6	48
HLD	86	72	0	48
HLD	86	72	4	48
HLD	86	144	2	48
HLD	86	144	6	48
HLD	86	216	0	48
HLD	86	216	4	48
TAP	86	288	0
TAP	86	304	1
TAP	86	320	2
TAP	86	336	3
HLD	87	0	1	48
HLD	87	0	5	48
HLD	87	72	3	48
HLD	87	72	7	48
HLD	87	144	1	48
HLD	87	144	5	48
HLD	87	216	3	48
HLD	87	216	7	48
TAP	87	288	7
TAP	87	304	6
TAP	87	320	5
TAP	87	336	4
TAP	88	0	0
TAP	88	0	2
TAP	88	48	1
TAP	88	96	2
TAP	88	96	4
TAP	88	144	3
TAP	88	192	4
TAP	88	192	6
TAP	88	240	5
TAP	88	288	0
TAP	88	304	1
TAP	88	320	2
TAP	88	336	3
TAP	89	0	5
TAP	89	0	7
TAP	89	48	6
TAP	89	96	3
TAP	89	96	5
TAP	89	144	4
TAP	89	192	1
TAP	89	192	3
TAP	89	240	2
TAP	89	288	7
TAP	89	304	6
TAP	89	320	5
TAP	89	336	4
TAP	90	0	0
TAP	90	0	2
TAP	90	48	1
TAP	90	96	5
TAP	90	96	7
TAP	90	144	6
TAP	90	192	0
TAP	90	192	2
TAP	90	240	1
TAP	90	288	7
TAP	90	304	6
TAP	90	320	5
TAP	90	336	4
TAP	91	0	1
TAP	91	24	0
TAP	91	48	1
TAP	91	72	0
TAP	91	96	2
TAP	91	120	7
TAP	91	144	2
TAP	91	168	7
TAP	91	192	3
TAP	91	216	6
STR	91	240	3
SI_	91	240	3	96	48	0
TAP	91	264	6
TAP	91	288	3

T_REC_TAP	514
T_REC_BRK	13
T_REC_XTP	0
T_REC_HLD	78
T_REC_XHO	0
T_REC_STR	132
T_REC_BST	2
T_REC_XST	0
T_REC_TTP	0
T_REC_THO	0
T_REC_SLD	136
T_REC_ALL	875
T_NUM_TAP	646
T_NUM_BRK	15
T_NUM_HLD	78
T_NUM_SLD	136
T_NUM_ALL	875
T_JUDGE_TAP	661
T_JUDGE_HLD	108
T_JUDGE_SLD	136
T_JUDGE_ALL	905
TTM_EACHPAIRS	126
TTM_SCR_TAP	323000
TTM_SCR_BRK	39000
TTM_SCR_HLD	78000
TTM_SCR_SLD	204000
TTM_SCR_ALL	644000
TTM_SCR_S	623250
TTM_SCR_SS	642500
TTM_RAT_ACV	10023

