VERSION	0.00.00	1.03.00
FES_MODE	0
BPM_DEF	175.000	175.000	175.000	175.000
MET_DEF	4	4
RESOLUTION	384
CLK_DEF	384
COMPATIBLE_CODE	MA2

BPM	0	0	175.000
MET	0	0	4	4

TAP	5	0	7
TAP	5	96	7
TAP	5	192	7
TAP	5	288	7
TAP	6	0	1
TAP	6	96	1
TAP	6	192	1
TAP	6	288	1
TAP	7	0	3
TAP	7	96	3
TAP	7	192	3
TAP	7	288	3
STR	8	0	5
SI_	8	0	5	96	48	0
STR	8	192	1
SI_	8	192	1	96	48	4
TAP	9	0	6
TAP	9	48	7
TAP	9	96	6
TAP	9	192	0
TAP	9	192	5
TAP	9	288	2
TAP	9	288	3
TAP	10	0	1
TAP	10	48	0
TAP	10	96	1
TAP	10	192	2
TAP	10	192	7
TAP	10	288	4
TAP	10	288	5
TAP	11	0	6
TAP	11	48	7
TAP	11	96	5
TAP	11	192	0
TAP	11	192	4
TAP	11	288	2
TAP	11	288	3
TAP	12	0	1
TAP	12	48	0
TAP	12	96	2
TAP	12	192	3
TAP	12	192	7
TAP	12	288	4
TAP	12	288	5
HLD	13	0	5	96
TAP	13	0	7
TAP	13	96	3
TAP	13	192	0
HLD	13	192	2	96
TAP	13	288	4
HLD	14	0	6	96
TAP	14	0	7
TAP	14	96	4
TAP	14	192	0
HLD	14	192	1	96
TAP	14	288	3
TAP	15	0	7
TAP	15	48	7
TAP	15	96	7
TAP	15	144	7
TAP	15	192	7
TAP	15	240	7
TAP	15	288	7
TAP	15	336	7
TAP	16	0	0
TAP	16	0	7
TAP	16	48	0
TAP	16	48	7
TAP	16	96	0
TAP	16	96	7
TAP	16	144	0
TAP	16	144	7
BST	16	192	0
SI_	16	192	0	96	48	3
BST	16	192	7
SI_	16	192	7	96	48	4
TAP	17	0	5
TAP	17	48	3
TAP	17	96	5
TAP	17	144	3
STR	17	192	5
SCR	17	192	5	96	48	0
TAP	17	240	3
TAP	18	0	2
TAP	18	48	7
TAP	18	96	2
TAP	18	144	7
STR	18	192	2
SCL	18	192	2	96	48	7
TAP	18	240	7
TAP	19	0	6
TAP	19	48	0
TAP	19	96	6
TAP	19	144	0
STR	19	192	6
SCL	19	192	6	96	48	3
TAP	19	240	0
TAP	20	0	1
TAP	20	48	4
TAP	20	96	1
TAP	20	144	4
STR	20	192	1
SCR	20	192	1	96	48	4
TAP	20	240	4
TAP	21	0	5
TAP	21	48	3
TAP	21	96	4
TAP	21	144	2
STR	21	192	3
SCR	21	192	3	96	48	6
TAP	21	240	1
TAP	22	0	2
TAP	22	48	4
TAP	22	96	3
TAP	22	144	5
STR	22	192	4
SCL	22	192	4	96	48	1
TAP	22	240	6
TAP	23	0	6
TAP	23	48	0
TAP	23	96	7
TAP	23	144	1
STR	23	192	0
SCL	23	192	0	96	48	5
TAP	23	240	2
TAP	24	0	1
TAP	24	48	7
STR	24	96	0
SSL	24	96	0	96	96	4
BRK	24	288	6
HLD	25	0	5	72
HLD	25	72	6	72
HLD	25	144	7	72
HLD	25	216	0	72
TAP	25	288	1
HLD	26	0	2	72
HLD	26	72	1	72
HLD	26	144	0	72
HLD	26	216	7	72
TAP	26	288	6
HLD	27	0	5	72
HLD	27	72	6	72
HLD	27	144	7	72
HLD	27	216	0	72
TAP	27	288	1
HLD	28	0	2	72
HLD	28	72	1	72
HLD	28	144	0	72
HLD	28	216	7	72
TAP	28	288	6
TAP	29	0	3
TAP	29	0	5
TAP	29	96	3
TAP	29	96	5
TAP	29	144	4
TAP	29	192	3
TAP	29	192	5
TAP	29	240	4
TAP	29	288	3
TAP	29	288	5
TAP	30	0	2
TAP	30	0	4
TAP	30	96	2
TAP	30	96	4
TAP	30	144	3
TAP	30	192	2
TAP	30	192	4
TAP	30	240	3
TAP	30	288	2
TAP	30	288	4
TAP	31	0	7
TAP	31	48	0
TAP	31	96	6
TAP	31	144	1
TAP	31	192	5
TAP	31	240	2
TAP	31	288	4
TAP	31	336	3
STR	32	0	4
SI_	32	0	4	96	48	0
TAP	32	192	2
TAP	32	240	4
TAP	32	288	6
TAP	32	336	0
BST	33	0	2
SCL	33	0	2	96	168	4
HLD	34	0	5	96
TAP	34	96	7
TAP	34	144	7
TAP	34	192	7
TAP	34	240	7
TAP	34	288	7
TAP	34	336	7
HLD	35	0	7	96
STR	35	96	5
SXR	35	96	5	96	168	7
HLD	36	0	2	96
TAP	36	96	0
TAP	36	144	0
TAP	36	192	0
TAP	36	240	0
TAP	36	288	0
TAP	36	336	0
HLD	37	0	0	96
STR	37	96	2
SXL	37	96	2	96	168	0
HLD	38	0	5	96
TAP	38	96	7
TAP	38	144	7
TAP	38	192	7
TAP	38	240	7
TAP	38	288	7
TAP	38	336	7
HLD	39	0	7	96
STR	39	96	5
SXR	39	96	5	96	168	7
HLD	40	0	2	96
TAP	40	96	0
TAP	40	144	0
TAP	40	192	0
TAP	40	240	0
TAP	40	288	0
TAP	40	336	0
HLD	41	0	0	96
STR	41	96	2
SXL	41	96	2	96	168	0
STR	42	0	4
SCR	42	0	4	96	72	7
STR	42	192	3
SUR	42	192	3	96	72	0
HLD	43	0	4	96
HLD	43	96	2	96
TAP	43	192	0
TAP	43	240	0
TAP	43	288	1
TAP	43	288	7
STR	44	0	3
SCL	44	0	3	96	72	0
STR	44	192	4
SUL	44	192	4	96	72	7
HLD	45	0	3	96
HLD	45	96	5	96
TAP	45	192	7
TAP	45	240	7
TAP	45	288	0
TAP	45	288	6
STR	46	0	4
SI_	46	0	4	96	48	6
STR	46	192	3
SI_	46	192	3	96	48	7
STR	47	0	4
SI_	47	0	4	96	48	0
STR	47	192	3
SI_	47	192	3	96	48	1
STR	48	0	4
SI_	48	0	4	96	48	7
STR	48	192	3
SI_	48	192	3	96	48	0
TAP	49	0	4
TAP	49	96	1
TAP	49	96	6
TAP	49	144	1
TAP	49	144	6
HLD	49	192	1	96
HLD	49	192	6	96
TAP	50	0	3
TAP	50	0	4
TAP	50	96	6
TAP	50	96	7
TAP	50	144	6
TAP	50	192	6
TAP	50	192	7
TAP	50	240	6
TAP	50	288	6
TAP	50	288	7
TAP	50	336	6
TAP	51	0	6
TAP	51	0	7
HLD	51	96	5	96
TAP	51	192	3
TAP	51	240	3
TAP	51	288	2
TAP	51	288	4
TAP	52	0	3
TAP	52	0	4
TAP	52	96	0
TAP	52	96	1
TAP	52	144	1
TAP	52	192	0
TAP	52	192	1
TAP	52	240	1
TAP	52	288	0
TAP	52	288	1
TAP	52	336	1
TAP	53	0	0
TAP	53	0	1
HLD	53	96	2	96
TAP	53	192	4
TAP	53	240	4
TAP	53	288	3
TAP	53	288	5
TAP	54	0	0
TAP	54	0	7
TAP	54	96	4
TAP	54	96	5
TAP	54	144	4
TAP	54	192	4
TAP	54	192	5
TAP	54	240	4
TAP	54	288	4
TAP	54	288	5
TAP	54	336	4
TAP	55	0	4
TAP	55	0	5
HLD	55	96	6	96
TAP	55	192	0
TAP	55	240	0
TAP	55	288	1
TAP	55	288	7
TAP	56	0	0
TAP	56	0	7
TAP	56	96	2
TAP	56	96	3
TAP	56	144	3
TAP	56	192	2
TAP	56	192	3
TAP	56	240	3
TAP	56	288	2
TAP	56	288	3
TAP	56	336	3
TAP	57	0	2
TAP	57	0	3
HLD	57	96	1	96
TAP	57	192	7
TAP	57	240	7
TAP	57	288	0
TAP	57	288	6
STR	58	0	5
SCL	58	0	5	96	72	2
STR	58	192	1
SUR	58	192	1	96	72	6
HLD	59	0	7	96
HLD	59	96	1	96
TAP	59	192	3
TAP	59	240	3
TAP	59	288	2
TAP	59	288	4
STR	60	0	2
SCR	60	0	2	96	72	5
STR	60	192	6
SUL	60	192	6	96	72	1
HLD	61	0	0	96
HLD	61	96	6	96
TAP	61	192	4
TAP	61	240	4
TAP	61	288	3
TAP	61	288	5
TAP	62	0	6
TAP	62	0	7
TAP	62	96	1
TAP	62	96	4
TAP	62	192	0
TAP	62	192	1
TAP	62	288	3
TAP	62	288	6
TAP	63	0	4
TAP	63	0	5
TAP	63	96	2
TAP	63	96	7
TAP	63	192	2
TAP	63	192	3
TAP	63	288	0
TAP	63	288	5
STR	64	0	7
SI_	64	0	7	96	48	3
STR	64	96	0
SI_	64	96	0	96	48	4
STR	64	192	6
SI_	64	192	6	96	48	2
STR	64	288	1
SI_	64	288	1	96	48	5
HLD	65	0	7	96
TAP	65	192	1
TAP	65	192	6
TAP	65	240	1
TAP	65	240	6
TAP	65	336	3
TAP	65	336	4
BST	66	0	3
SXR	66	0	3	96	192	0
BST	66	0	4
SXL	66	0	4	96	192	7
TAP	67	0	0
TAP	67	0	7
STR	67	96	0
SI_	67	96	0	96	48	3
STR	67	96	7
SI_	67	96	7	96	48	4
TAP	68	0	1
TAP	68	0	6
TAP	68	96	1
TAP	68	96	6
HLD	68	192	6	72
HLD	68	264	7	72
TAP	68	336	0
TAP	69	48	0
TAP	69	48	2
TAP	69	96	0
TAP	69	96	2
HLD	69	192	1	72
HLD	69	264	0	72
TAP	69	336	7
TAP	70	48	5
TAP	70	48	7
TAP	70	96	5
TAP	70	96	7
HLD	70	192	6	72
HLD	70	264	7	72
TAP	70	336	0
TAP	71	48	0
TAP	71	48	2
TAP	71	96	0
TAP	71	96	2
HLD	71	192	1	72
HLD	71	264	0	72
TAP	71	336	7
TAP	72	0	7
TAP	72	96	2
TAP	72	96	3
TAP	72	192	0
TAP	72	192	2
TAP	72	288	4
TAP	72	288	5
TAP	73	0	6
TAP	73	0	7
TAP	73	96	2
TAP	73	96	3
TAP	73	192	0
TAP	73	192	1
TAP	73	288	4
TAP	73	288	5
TAP	74	0	0
TAP	74	48	0
TAP	74	96	0
TAP	74	144	0
TAP	74	192	0
TAP	74	240	0
TAP	74	288	0
TAP	74	336	0
TAP	75	0	0
TAP	75	0	7
TAP	75	48	0
TAP	75	48	7
TAP	75	96	0
TAP	75	96	7
TAP	75	144	0
TAP	75	144	7
BST	75	192	0
SI_	75	192	0	96	48	3
BST	75	192	7
SI_	75	192	7	96	48	4
TAP	76	0	6
TAP	76	48	1
TAP	76	96	6
TAP	76	144	2
STR	76	192	6
SCL	76	192	6	96	48	3
TAP	76	240	3
TAP	77	0	1
TAP	77	48	4
TAP	77	96	1
TAP	77	144	5
STR	77	192	1
SCR	77	192	1	96	48	4
TAP	77	240	6
TAP	78	0	5
TAP	78	48	2
TAP	78	96	5
TAP	78	144	1
STR	78	192	5
SCR	78	192	5	96	48	0
TAP	78	240	0
TAP	79	0	2
TAP	79	48	7
TAP	79	96	2
TAP	79	144	6
STR	79	192	2
SCL	79	192	2	96	48	7
TAP	79	240	5
TAP	80	0	5
TAP	80	48	0
TAP	80	96	4
TAP	80	144	1
STR	80	192	3
SCR	80	192	3	96	48	6
TAP	80	240	2
TAP	81	0	2
TAP	81	48	7
TAP	81	96	3
TAP	81	144	6
STR	81	192	4
SCL	81	192	4	96	48	1
TAP	81	240	5
TAP	82	0	6
TAP	82	48	3
TAP	82	96	7
TAP	82	144	2
STR	82	192	0
SCL	82	192	0	96	48	5
TAP	82	240	1
TAP	83	0	1
TAP	83	48	4
STR	83	96	0
SSL	83	96	0	96	96	4
BRK	83	288	6
HLD	84	0	7	72
HLD	84	72	0	72
HLD	84	144	1	72
HLD	84	216	2	72
TAP	84	288	4
TAP	84	336	4
HLD	85	0	0	72
HLD	85	72	7	72
HLD	85	144	6	72
HLD	85	216	5	72
TAP	85	288	3
TAP	85	336	3
HLD	86	0	7	72
HLD	86	72	0	72
HLD	86	144	1	72
HLD	86	216	2	72
TAP	86	288	4
TAP	86	336	4
HLD	87	0	0	72
HLD	87	72	7	72
HLD	87	144	6	72
HLD	87	216	5	72
TAP	87	288	3
TAP	88	0	0
TAP	88	0	6
TAP	88	96	0
TAP	88	96	6
TAP	88	144	7
TAP	88	192	0
TAP	88	192	6
TAP	88	240	7
TAP	88	288	0
TAP	88	288	6
TAP	89	0	1
TAP	89	0	7
TAP	89	96	1
TAP	89	96	7
TAP	89	144	0
TAP	89	192	1
TAP	89	192	7
TAP	89	240	0
TAP	89	288	1
TAP	89	288	7
TAP	90	0	7
TAP	90	48	0
TAP	90	96	6
TAP	90	144	1
TAP	90	192	5
TAP	90	240	2
TAP	90	288	4
TAP	90	336	3
STR	91	0	4
SI_	91	0	4	96	48	0
STR	91	96	3
SI_	91	96	3	96	48	7
BST	91	192	5
SCR	91	192	5	96	96	2

T_REC_TAP	397
T_REC_BRK	2
T_REC_XTP	0
T_REC_HLD	67
T_REC_XHO	0
T_REC_STR	45
T_REC_BST	8
T_REC_XST	0
T_REC_TTP	0
T_REC_THO	0
T_REC_SLD	53
T_REC_ALL	572
T_NUM_TAP	442
T_NUM_BRK	10
T_NUM_HLD	67
T_NUM_SLD	53
T_NUM_ALL	572
T_JUDGE_TAP	452
T_JUDGE_HLD	134
T_JUDGE_SLD	53
T_JUDGE_ALL	639
TTM_EACHPAIRS	98
TTM_SCR_TAP	221000
TTM_SCR_BRK	26000
TTM_SCR_HLD	67000
TTM_SCR_SLD	79500
TTM_SCR_ALL	393500
TTM_SCR_S	380750
TTM_SCR_SS	392500
TTM_RAT_ACV	10025

