VERSION	0.00.00	1.03.00
FES_MODE	0
BPM_DEF	175.000	175.000	175.000	175.000
MET_DEF	4	4
RESOLUTION	384
CLK_DEF	384
COMPATIBLE_CODE	MA2

BPM	0	0	175.000

TAP	5	0	4
TAP	5	96	4
TAP	5	192	4
TAP	5	288	4
TAP	6	0	3
TAP	6	96	3
TAP	6	192	3
TAP	6	288	3
TAP	7	0	4
TAP	7	96	4
TAP	7	192	3
TAP	7	288	3
STR	8	0	5
SUR	8	0	5	96	192	2
TAP	9	0	2
TAP	9	96	2
TAP	9	96	3
TAP	9	192	5
TAP	9	288	4
TAP	9	288	5
TAP	10	0	2
TAP	10	96	2
TAP	10	96	3
TAP	10	192	5
TAP	10	288	4
TAP	10	288	5
TAP	11	0	2
TAP	11	96	1
TAP	11	96	3
TAP	11	192	5
TAP	11	288	4
TAP	11	288	6
TAP	12	0	2
TAP	12	96	1
TAP	12	96	3
TAP	12	192	5
TAP	12	288	4
TAP	12	288	6
TAP	13	0	1
TAP	13	96	0
TAP	13	96	7
TAP	13	192	6
TAP	13	288	0
TAP	13	288	7
TAP	14	0	1
TAP	14	96	0
TAP	14	96	7
TAP	14	192	5
TAP	14	288	0
TAP	14	288	7
TAP	15	0	2
TAP	15	96	0
TAP	15	96	7
TAP	15	192	5
TAP	15	288	0
TAP	15	288	7
TAP	16	0	1
TAP	16	0	6
STR	16	96	0
SI_	16	96	0	96	96	3
STR	16	96	7
SI_	16	96	7	96	96	4
TAP	17	0	2
TAP	17	96	3
TAP	17	192	1
TAP	17	192	4
TAP	18	0	5
TAP	18	96	4
TAP	18	192	3
TAP	18	192	6
TAP	19	0	2
TAP	19	96	3
TAP	19	192	1
TAP	19	192	4
TAP	20	0	5
TAP	20	96	4
TAP	20	192	3
TAP	20	192	6
TAP	20	288	0
TAP	20	288	7
TAP	21	0	1
TAP	21	96	0
TAP	21	192	2
TAP	21	192	7
TAP	22	0	6
TAP	22	96	7
TAP	22	192	0
TAP	22	192	5
TAP	23	0	1
TAP	23	96	0
TAP	23	192	2
TAP	23	192	7
TAP	24	0	6
TAP	24	96	7
TAP	24	192	0
TAP	24	192	5
TAP	24	288	3
TAP	24	288	4
TAP	25	0	2
TAP	25	96	1
HLD	25	192	0	96
TAP	25	288	7
TAP	26	0	5
TAP	26	96	4
HLD	26	192	3	96
TAP	26	288	4
TAP	27	0	5
TAP	27	96	6
HLD	27	192	7	96
TAP	27	288	0
TAP	28	0	2
TAP	28	96	3
HLD	28	192	4	96
TAP	28	288	3
TAP	29	0	5
TAP	29	96	4
TAP	29	96	5
TAP	29	192	2
TAP	29	288	2
TAP	29	288	3
TAP	30	0	5
TAP	30	96	4
TAP	30	96	6
TAP	30	192	2
TAP	30	288	1
TAP	30	288	3
TAP	31	0	4
TAP	31	96	5
TAP	31	192	6
TAP	31	288	7
TAP	32	0	0
TAP	32	96	1
TAP	32	192	2
STR	32	288	3
SCL	32	288	3	96	288	4
STR	34	0	3
SI_	34	0	3	96	48	1
STR	34	192	4
SI_	34	192	4	96	48	6
STR	35	0	3
SI_	35	0	3	96	48	1
STR	35	192	4
SI_	35	192	4	96	48	6
STR	36	0	2
SI_	36	0	2	96	48	0
STR	36	192	4
SI_	36	192	4	96	48	6
STR	37	0	2
SI_	37	0	2	96	48	0
STR	37	192	4
SI_	37	192	4	96	48	6
STR	38	0	3
SI_	38	0	3	96	48	1
STR	38	192	5
SI_	38	192	5	96	48	7
STR	39	0	3
SI_	39	0	3	96	48	1
STR	39	192	5
SI_	39	192	5	96	48	7
STR	40	0	2
SI_	40	0	2	96	48	0
STR	40	192	5
SI_	40	192	5	96	48	7
TAP	41	0	0
TAP	41	96	1
TAP	41	192	2
TAP	41	288	3
STR	42	0	4
SI_	42	0	4	96	48	6
STR	42	192	3
SI_	42	192	3	96	48	7
STR	43	0	4
SI_	43	0	4	96	48	6
STR	43	192	3
SI_	43	192	3	96	48	7
STR	44	0	4
SI_	44	0	4	96	48	0
STR	44	192	3
SI_	44	192	3	96	48	1
STR	45	0	4
SI_	45	0	4	96	48	0
STR	45	192	3
SI_	45	192	3	96	48	1
TAP	46	0	5
STR	46	96	5
SCR	46	96	5	96	240	2
HLD	47	192	2	192
HLD	48	0	3	192
HLD	48	192	4	192
HLD	49	0	5	192
TAP	49	192	4
TAP	49	288	2
TAP	49	288	3
TAP	50	0	1
TAP	50	96	0
TAP	50	96	1
TAP	50	192	6
TAP	50	288	6
TAP	50	288	7
TAP	51	0	5
TAP	51	96	4
TAP	51	96	5
TAP	51	192	2
TAP	51	192	3
TAP	51	288	4
TAP	51	288	5
TAP	52	0	6
TAP	52	96	6
TAP	52	96	7
TAP	52	192	1
TAP	52	288	0
TAP	52	288	1
TAP	53	0	2
TAP	53	96	2
TAP	53	96	3
TAP	53	192	4
TAP	53	192	5
TAP	53	288	2
TAP	53	288	3
TAP	54	0	1
TAP	54	96	0
TAP	54	96	1
TAP	54	192	6
TAP	54	288	6
TAP	54	288	7
TAP	55	0	1
TAP	55	96	0
TAP	55	96	1
TAP	55	192	6
TAP	55	192	7
TAP	55	288	0
TAP	55	288	1
TAP	56	0	6
TAP	56	96	6
TAP	56	96	7
TAP	56	192	1
TAP	56	288	0
TAP	56	288	1
TAP	57	0	6
TAP	57	96	6
TAP	57	96	7
TAP	57	192	0
TAP	57	192	1
TAP	57	288	6
TAP	57	288	7
TAP	58	0	5
TAP	58	96	4
TAP	58	96	6
TAP	58	192	2
TAP	58	288	1
TAP	58	288	3
TAP	59	0	5
TAP	59	96	4
TAP	59	96	5
TAP	59	192	6
TAP	59	192	7
TAP	59	288	0
TAP	59	288	1
TAP	60	0	2
TAP	60	96	1
TAP	60	96	3
TAP	60	192	5
TAP	60	288	4
TAP	60	288	6
TAP	61	0	2
TAP	61	96	2
TAP	61	96	3
TAP	61	192	0
TAP	61	192	1
TAP	61	288	6
TAP	61	288	7
TAP	62	0	5
STR	62	96	5
SCR	62	96	5	96	240	2
HLD	63	192	2	192
HLD	64	0	3	192
HLD	64	192	4	192
HLD	65	0	5	192
TAP	65	192	4
STR	65	288	2
SCL	65	288	2	96	240	5
TAP	65	288	3
TAP	67	0	3
TAP	67	0	4
TAP	67	96	2
TAP	67	96	5
TAP	67	192	1
TAP	67	192	6
BRK	67	288	0
BRK	67	288	7
TAP	68	0	1
TAP	68	96	0
TAP	68	192	1
TAP	68	288	2
TAP	68	288	7
TAP	69	0	6
TAP	69	96	7
TAP	69	192	6
TAP	69	288	0
TAP	69	288	5
TAP	70	0	4
TAP	70	96	3
TAP	70	192	4
TAP	70	288	2
TAP	70	288	5
TAP	71	0	0
TAP	71	96	7
TAP	71	192	0
TAP	71	288	1
TAP	71	288	6
TAP	72	0	2
TAP	72	96	1
TAP	72	96	3
TAP	72	192	5
TAP	72	288	4
TAP	72	288	6
TAP	73	0	1
TAP	73	96	0
TAP	73	96	2
TAP	73	192	6
TAP	73	288	5
TAP	73	288	7
TAP	74	0	0
TAP	74	0	1
TAP	74	96	2
TAP	74	96	7
TAP	74	192	6
TAP	74	192	7
TAP	74	288	0
TAP	74	288	5
TAP	75	0	1
TAP	75	0	6
STR	75	96	0
SI_	75	96	0	96	96	3
STR	75	96	7
SI_	75	96	7	96	96	4
TAP	76	0	2
TAP	76	96	1
TAP	76	96	3
TAP	76	192	0
TAP	76	192	7
TAP	76	288	1
TAP	76	288	6
TAP	77	0	5
TAP	77	96	4
TAP	77	96	6
TAP	77	192	0
TAP	77	192	7
TAP	77	288	1
TAP	77	288	6
TAP	78	0	2
TAP	78	96	1
TAP	78	96	3
TAP	78	192	0
TAP	78	192	7
TAP	78	288	1
TAP	78	288	6
TAP	79	0	5
TAP	79	96	4
TAP	79	96	6
TAP	79	192	0
TAP	79	192	7
TAP	79	288	1
TAP	79	288	6
TAP	80	0	2
TAP	80	96	3
TAP	80	96	4
TAP	80	192	0
TAP	80	192	1
TAP	80	288	2
TAP	80	288	7
TAP	81	0	5
TAP	81	96	3
TAP	81	96	4
TAP	81	192	6
TAP	81	192	7
TAP	81	288	0
TAP	81	288	5
TAP	82	0	2
TAP	82	96	3
TAP	82	96	4
TAP	82	192	0
TAP	82	192	1
TAP	82	288	2
TAP	82	288	7
TAP	83	0	5
TAP	83	96	3
TAP	83	96	4
TAP	83	192	6
TAP	83	192	7
TAP	83	288	0
TAP	83	288	5
TAP	84	0	2
TAP	84	96	3
TAP	84	96	4
TAP	84	192	5
TAP	84	288	6
TAP	84	288	7
TAP	85	0	0
TAP	85	96	1
TAP	85	96	7
TAP	85	192	6
TAP	85	288	5
TAP	85	288	7
TAP	86	0	6
TAP	86	96	3
TAP	86	96	4
TAP	86	192	1
TAP	86	288	0
TAP	86	288	2
TAP	87	0	1
TAP	87	96	3
TAP	87	96	4
TAP	87	192	6
TAP	87	288	5
TAP	87	288	7
TAP	88	0	4
TAP	88	96	3
STR	88	192	2
SI_	88	192	2	96	48	0
TAP	89	0	7
TAP	89	96	6
STR	89	192	5
SI_	89	192	5	96	48	7
TAP	90	0	0
TAP	90	96	0
TAP	90	96	1
TAP	90	192	7
TAP	90	288	6
TAP	90	288	7
TAP	91	0	3
TAP	91	0	4
TAP	91	96	2
TAP	91	96	5
TAP	91	192	1
TAP	91	192	6
BRK	91	288	0
BRK	91	288	7

T_REC_TAP	356
T_REC_BRK	4
T_REC_XTP	0
T_REC_HLD	12
T_REC_XHO	0
T_REC_STR	33
T_REC_BST	0
T_REC_XST	0
T_REC_TTP	0
T_REC_THO	0
T_REC_SLD	33
T_REC_ALL	438
T_NUM_TAP	389
T_NUM_BRK	4
T_NUM_HLD	12
T_NUM_SLD	33
T_NUM_ALL	438
T_JUDGE_TAP	393
T_JUDGE_HLD	40
T_JUDGE_SLD	33
T_JUDGE_ALL	466
TTM_EACHPAIRS	118
TTM_SCR_TAP	194500
TTM_SCR_BRK	10400
TTM_SCR_HLD	12000
TTM_SCR_SLD	49500
TTM_SCR_ALL	266400
TTM_SCR_S	258050
TTM_SCR_SS	266000
TTM_RAT_ACV	10015

