VERSION	0.00.00	1.03.00
FES_MODE	0
BPM_DEF	175.000	175.000	175.000	175.000
MET_DEF	4	4
RESOLUTION	384
CLK_DEF	384
COMPATIBLE_CODE	MA2

BPM	0	0	175.000

TAP	1	0	0
TAP	1	96	0
TAP	1	192	0
TAP	2	0	1
TAP	2	96	1
TAP	2	192	1
TAP	3	0	2
TAP	3	96	2
TAP	3	192	2
TAP	4	0	3
TAP	4	96	3
TAP	4	192	3
TAP	5	0	4
TAP	5	96	4
TAP	5	192	4
TAP	6	0	5
TAP	6	96	5
TAP	6	192	5
TAP	7	0	6
TAP	7	96	6
TAP	7	192	6
TAP	8	0	7
TAP	8	96	7
BRK	8	192	0
BRK	8	192	7
TAP	9	0	7
TAP	9	96	7
TAP	9	192	7
TAP	10	0	6
TAP	10	96	6
TAP	10	192	6
TAP	11	0	5
TAP	11	96	5
TAP	11	192	5
TAP	12	0	4
TAP	12	96	4
TAP	12	192	4
TAP	13	0	3
TAP	13	96	3
TAP	13	192	3
TAP	14	0	2
TAP	14	96	2
TAP	14	192	2
TAP	15	0	1
TAP	15	96	1
TAP	15	192	1
TAP	16	0	0
TAP	16	96	0
BRK	16	192	0
BRK	16	192	7
TAP	17	0	6
TAP	17	96	6
TAP	17	192	6
TAP	17	192	7
TAP	18	0	1
TAP	18	96	1
TAP	18	192	0
TAP	18	192	1
TAP	19	0	2
TAP	19	96	2
TAP	19	192	2
TAP	19	192	3
TAP	20	0	5
TAP	20	96	5
TAP	20	192	4
TAP	20	192	5
TAP	21	0	2
TAP	21	96	2
TAP	21	192	2
TAP	21	192	3
TAP	22	0	1
TAP	22	96	1
TAP	22	192	0
TAP	22	192	1
TAP	23	0	6
TAP	23	96	6
TAP	23	192	6
TAP	23	192	7
TAP	24	0	5
TAP	24	96	5
TAP	24	192	4
TAP	24	192	5
TAP	25	0	3
TAP	25	96	3
TAP	25	192	2
TAP	25	288	2
TAP	26	0	1
TAP	26	96	1
TAP	26	192	0
TAP	26	192	7
TAP	27	0	7
TAP	27	96	7
TAP	27	192	6
TAP	27	288	6
TAP	28	0	5
TAP	28	96	5
TAP	28	192	3
TAP	28	192	4
TAP	29	0	4
TAP	29	96	4
TAP	29	192	5
TAP	29	288	5
TAP	30	0	6
TAP	30	96	6
TAP	30	192	0
TAP	30	192	7
TAP	31	0	0
TAP	31	96	0
TAP	31	192	1
TAP	31	288	1
TAP	32	0	2
TAP	32	96	2
TAP	32	192	3
TAP	32	192	4
BRK	33	0	2
BRK	33	0	5
STR	34	0	0
SI_	34	0	0	96	288	3
STR	36	0	4
SI_	36	0	4	96	288	7
STR	38	0	1
SI_	38	0	1	96	288	6
STR	40	0	5
SI_	40	0	5	96	288	2
STR	42	0	0
SI_	42	0	0	96	288	4
STR	44	0	6
SI_	44	0	6	96	288	3
STR	46	0	1
SI_	46	0	1	96	288	4
STR	48	0	7
SI_	48	0	7	96	288	3
TAP	50	0	0
TAP	50	96	0
TAP	50	192	0
HLD	51	0	0	192
HLD	51	0	1	192
TAP	52	0	2
TAP	52	96	2
TAP	52	192	2
HLD	53	0	2	192
HLD	53	0	3	192
TAP	54	0	4
TAP	54	96	4
TAP	54	192	4
HLD	55	0	4	192
HLD	55	0	5	192
TAP	56	0	6
TAP	56	96	6
TAP	56	192	6
HLD	57	0	6	192
HLD	57	0	7	192
TAP	58	0	7
TAP	58	96	7
TAP	58	192	6
TAP	58	288	6
HLD	59	0	4	192
HLD	59	0	5	192
TAP	60	0	3
TAP	60	96	3
TAP	60	192	2
TAP	60	288	2
HLD	61	0	0	192
HLD	61	0	1	192
TAP	62	0	0
TAP	62	96	0
TAP	62	192	1
TAP	62	288	1
TAP	63	0	2
TAP	63	96	2
TAP	63	192	3
TAP	63	288	3
TAP	64	0	4
TAP	64	96	4
TAP	64	192	5
TAP	64	288	5
TAP	65	0	6
TAP	65	96	6
TAP	65	192	7
TAP	65	288	7
BRK	66	0	0
TAP	67	0	0
TAP	67	96	7
BRK	67	192	0
TAP	68	0	0
TAP	68	96	0
TAP	68	192	1
TAP	68	192	7
TAP	69	0	0
TAP	69	96	0
TAP	69	192	1
TAP	69	192	7
TAP	70	0	7
TAP	70	96	7
TAP	70	192	0
TAP	70	192	6
TAP	71	0	7
TAP	71	96	7
TAP	71	192	0
TAP	71	192	6
TAP	72	0	5
TAP	72	96	5
TAP	72	192	4
TAP	72	192	6
TAP	73	0	5
TAP	73	96	5
TAP	73	192	4
TAP	73	192	6
TAP	74	0	3
TAP	74	96	3
TAP	74	192	2
TAP	74	192	4
TAP	75	0	3
TAP	75	96	3
BRK	75	192	2
BRK	75	192	4
TAP	76	0	3
TAP	76	96	3
TAP	76	192	4
TAP	77	0	4
TAP	77	96	4
TAP	77	192	5
TAP	78	0	5
TAP	78	96	5
TAP	78	192	6
TAP	79	0	6
TAP	79	96	6
TAP	79	192	7
TAP	80	0	7
TAP	80	96	7
TAP	80	192	0
TAP	81	0	0
TAP	81	96	0
TAP	81	192	1
TAP	82	0	1
TAP	82	96	1
TAP	82	192	2
TAP	83	0	2
TAP	83	96	2
BRK	83	192	3
TAP	84	0	4
TAP	84	96	4
TAP	84	192	5
TAP	84	288	5
TAP	85	0	6
TAP	85	96	6
TAP	85	192	7
TAP	85	288	7
TAP	86	0	0
TAP	86	96	0
TAP	86	192	1
TAP	86	288	1
TAP	87	0	2
TAP	87	96	2
TAP	87	192	3
TAP	87	192	4
TAP	88	0	3
TAP	88	96	3
TAP	88	192	2
TAP	88	288	2
TAP	89	0	1
TAP	89	96	1
TAP	89	192	0
TAP	89	288	0
TAP	90	0	7
TAP	90	96	7
TAP	90	192	6
TAP	90	288	6
TAP	91	0	5
TAP	91	96	5
TAP	91	192	3
TAP	91	192	4
BRK	91	288	3
BRK	91	288	4

T_REC_TAP	233
T_REC_BRK	13
T_REC_XTP	0
T_REC_HLD	12
T_REC_XHO	0
T_REC_STR	8
T_REC_BST	0
T_REC_XST	0
T_REC_TTP	0
T_REC_THO	0
T_REC_SLD	8
T_REC_ALL	274
T_NUM_TAP	241
T_NUM_BRK	13
T_NUM_HLD	12
T_NUM_SLD	8
T_NUM_ALL	274
T_JUDGE_TAP	254
T_JUDGE_HLD	48
T_JUDGE_SLD	8
T_JUDGE_ALL	310
TTM_EACHPAIRS	32
TTM_SCR_TAP	120500
TTM_SCR_BRK	33800
TTM_SCR_HLD	12000
TTM_SCR_SLD	12000
TTM_SCR_ALL	178300
TTM_SCR_S	171700
TTM_SCR_SS	177000
TTM_RAT_ACV	10073

