VERSION	0.00.00	1.03.00
FES_MODE	0
BPM_DEF	220.000	220.000	220.000	220.000
MET_DEF	4	4
RESOLUTION	384
CLK_DEF	384
COMPATIBLE_CODE	MA2

BPM	0	0	220.000

TAP	2	0	3
TAP	2	64	3
TAP	2	96	4
TAP	2	160	4
TAP	2	192	2
TAP	2	256	2
TAP	2	288	5
TAP	2	352	5
TAP	3	0	3
TAP	3	64	3
STR	3	96	4
SI_	3	96	4	96	48	0
TAP	3	160	4
STR	3	192	3
SI_	3	192	3	96	48	7
TAP	4	0	4
TAP	4	64	4
TAP	4	96	3
TAP	4	160	3
TAP	4	192	5
TAP	4	256	5
TAP	4	288	2
TAP	4	352	2
TAP	5	0	4
TAP	5	64	4
STR	5	96	3
SI_	5	96	3	96	48	7
TAP	5	160	3
STR	5	192	4
SI_	5	192	4	96	48	0
TAP	6	0	2
TAP	6	64	2
TAP	6	96	3
TAP	6	160	3
TAP	6	192	1
TAP	6	256	1
TAP	6	288	4
TAP	6	352	4
TAP	7	0	2
TAP	7	64	2
STR	7	96	3
SI_	7	96	3	96	48	0
TAP	7	160	3
STR	7	192	2
SI_	7	192	2	96	48	7
TAP	8	0	5
TAP	8	64	5
TAP	8	96	4
TAP	8	160	4
TAP	8	192	6
TAP	8	256	6
TAP	8	288	3
TAP	8	352	3
TAP	9	0	5
TAP	9	64	5
STR	9	96	4
SI_	9	96	4	96	48	7
TAP	9	160	4
STR	9	192	5
SI_	9	192	5	96	48	0
TAP	10	0	2
TAP	10	64	2
TAP	10	96	3
TAP	10	160	3
TAP	10	192	1
TAP	10	256	1
TAP	10	288	4
TAP	10	352	4
TAP	11	0	2
TAP	11	64	2
STR	11	96	3
SI_	11	96	3	96	48	0
TAP	11	160	3
STR	11	192	2
SI_	11	192	2	96	48	7
TAP	12	0	5
TAP	12	64	5
TAP	12	96	4
TAP	12	160	4
TAP	12	192	6
TAP	12	256	6
TAP	12	288	3
TAP	12	352	3
TAP	13	0	5
TAP	13	64	5
STR	13	96	4
SI_	13	96	4	96	48	1
TAP	13	160	4
STR	13	192	5
SI_	13	192	5	96	48	0
STR	14	0	1
SI_	14	0	1	96	96	5
STR	14	96	5
SLR	14	96	5	96	96	3
STR	15	0	0
SCR	15	0	0	96	48	3
STR	15	0	7
SCL	15	0	7	96	48	4
TAP	15	192	1
TAP	15	192	6
TAP	15	288	3
TAP	15	288	4
HLD	16	0	1	96
HLD	16	0	2	96
HLD	16	192	5	96
HLD	16	192	6	96
BST	17	0	1
SI_	17	0	1	96	48	5
BST	17	96	6
SI_	17	96	6	96	48	2
BST	17	192	0
SI_	17	192	0	96	48	4
BRK	17	288	7
TAP	18	0	5
HLD	18	0	6	96
TAP	18	96	1
HLD	18	192	1	96
TAP	18	192	2
TAP	18	288	6
TAP	19	0	3
TAP	19	0	5
TAP	19	96	2
TAP	19	96	4
TAP	19	192	3
TAP	19	192	6
TAP	19	288	1
TAP	19	288	4
STR	20	0	4
SCL	20	0	4	96	48	1
TAP	20	0	5
TAP	20	192	2
STR	20	192	3
SCR	20	192	3	96	48	6
TAP	21	0	4
TAP	21	0	5
TAP	21	96	2
TAP	21	96	4
TAP	21	192	3
TAP	21	192	7
HLD	22	0	1	1440
TAP	22	0	3
TAP	22	96	3
TAP	22	192	2
TAP	22	288	2
TAP	23	0	3
TAP	23	96	2
TAP	23	192	3
TAP	23	288	2
STR	24	0	3
SI_	24	0	3	96	48	5
STR	24	192	3
SI_	24	192	3	96	48	0
TAP	25	0	3
STR	25	96	3
SCR	25	96	3	96	96	0
TAP	26	0	4
HLD	26	0	6	576
TAP	26	96	4
TAP	26	192	5
TAP	26	288	5
TAP	27	0	4
TAP	27	96	5
BRK	27	192	3
TAP	27	288	3
TAP	27	288	4
STR	28	0	2
SI_	28	0	2	96	96	6
TAP	28	96	7
STR	28	192	5
SI_	28	192	5	96	96	1
TAP	28	288	0
STR	29	0	3
SI_	29	0	3	96	96	7
TAP	29	96	6
TAP	29	192	4
TAP	29	288	1
TAP	29	288	6
TAP	30	0	2
STR	30	0	3
SI_	30	0	3	96	48	7
TAP	30	96	1
TAP	30	192	2
STR	30	192	3
SI_	30	192	3	96	48	7
TAP	30	288	0
STR	31	0	4
SI_	31	0	4	96	48	0
TAP	31	0	5
TAP	31	96	6
STR	31	192	4
SI_	31	192	4	96	48	0
TAP	31	192	5
TAP	31	288	7
TAP	32	0	2
STR	32	0	3
SI_	32	0	3	96	48	7
TAP	32	96	1
STR	32	192	4
SI_	32	192	4	96	48	0
TAP	32	192	5
TAP	32	288	6
TAP	33	0	2
STR	33	0	3
SI_	33	0	3	96	48	7
TAP	33	96	0
STR	33	192	4
SI_	33	192	4	96	48	0
TAP	33	192	5
TAP	33	288	7
TAP	34	0	6
STR	34	0	7
SI_	34	0	7	96	48	3
TAP	34	96	5
STR	34	192	0
SI_	34	192	0	96	48	4
TAP	34	192	1
TAP	34	288	2
TAP	35	0	6
STR	35	0	7
SI_	35	0	7	96	48	3
TAP	35	96	4
STR	35	192	0
SI_	35	192	0	96	48	4
TAP	35	192	1
TAP	35	288	3
HLD	36	0	1	192
HLD	36	0	6	192
STR	36	288	4
SI_	36	288	4	96	48	1
TAP	36	288	5
STR	37	0	5
SI_	37	0	5	96	48	0
STR	37	96	4
SI_	37	96	4	96	48	1
STR	37	192	5
SI_	37	192	5	96	48	0
STR	38	0	2
SI_	38	0	2	96	48	4
TAP	38	96	6
STR	38	192	5
SI_	38	192	5	96	48	3
TAP	38	288	0
STR	39	0	1
SI_	39	0	1	96	48	4
TAP	39	96	7
STR	39	192	6
SI_	39	192	6	96	48	3
TAP	39	288	1
TAP	40	0	0
TAP	40	0	2
TAP	40	96	6
TAP	40	192	5
TAP	40	192	7
TAP	40	288	1
TAP	41	0	3
TAP	41	0	4
TAP	41	96	0
TAP	41	96	7
BRK	41	192	1
BRK	41	192	6
STR	42	0	3
SI_	42	0	3	96	48	1
STR	42	0	4
SI_	42	0	4	96	48	0
STR	42	192	3
SI_	42	192	3	96	48	7
STR	42	192	4
SI_	42	192	4	96	48	6
STR	43	0	3
SI_	43	0	3	96	48	0
TAP	43	0	4
STR	43	96	4
SI_	43	96	4	96	48	7
TAP	43	192	3
STR	44	0	5
SCL	44	0	5	96	48	2
TAP	44	96	0
STR	44	192	1
SCL	44	192	1	96	48	6
TAP	44	288	5
STR	45	0	5
SCL	45	0	5	96	48	2
TAP	45	192	1
TAP	45	192	7
TAP	45	288	3
TAP	45	288	4
STR	46	0	2
SI_	46	0	2	96	48	0
STR	46	0	3
SI_	46	0	3	96	48	7
STR	46	192	4
SI_	46	192	4	96	48	0
STR	46	192	5
SI_	46	192	5	96	48	7
TAP	47	0	3
TAP	47	0	4
STR	47	96	1
SCL	47	96	1	96	96	6
STR	47	96	5
SUR	47	96	5	96	96	2
STR	48	0	4
SI_	48	0	4	96	48	0
STR	48	0	5
SI_	48	0	5	96	48	1
STR	48	192	2
SI_	48	192	2	96	48	6
STR	48	192	3
SI_	48	192	3	96	48	7
BRK	49	0	0
TAP	49	0	4
BRK	49	96	1
TAP	49	96	5
BRK	49	192	2
TAP	49	192	6
BRK	49	288	3
TAP	49	288	7
STR	50	0	3
SI_	50	0	3	96	48	7
STR	50	0	4
SI_	50	0	4	96	48	6
STR	50	192	3
SI_	50	192	3	96	48	1
STR	50	192	4
SI_	50	192	4	96	48	0
TAP	51	0	3
STR	51	0	4
SI_	51	0	4	96	48	0
STR	51	96	3
SI_	51	96	3	96	48	7
TAP	51	192	4
STR	52	0	2
SCR	52	0	2	96	48	5
TAP	52	96	7
STR	52	192	6
SCR	52	192	6	96	48	1
TAP	52	288	2
STR	53	0	2
SCL	53	0	2	96	48	7
STR	53	0	3
SUL	53	0	3	96	48	6
TAP	53	192	1
TAP	53	192	4
TAP	53	288	3
TAP	53	288	4
STR	54	0	4
SI_	54	0	4	96	48	0
STR	54	0	5
SI_	54	0	5	96	48	7
STR	54	192	2
SI_	54	192	2	96	48	0
STR	54	192	3
SI_	54	192	3	96	48	7
TAP	55	0	2
TAP	55	0	5
TAP	55	96	3
STR	55	96	4
SI_	55	96	4	96	96	7
HLD	55	192	0	96
STR	56	0	0
SI_	56	0	0	96	48	4
STR	56	0	1
SI_	56	0	1	96	48	5
STR	56	192	6
SI_	56	192	6	96	48	2
STR	56	192	7
SI_	56	192	7	96	48	3
TAP	57	0	4
TAP	57	0	5
TAP	57	96	2
TAP	57	96	3
TAP	57	192	1
TAP	57	192	6
TAP	58	0	0
HLD	58	0	7	64
TAP	58	64	5
TAP	58	96	7
HLD	58	192	0	64
TAP	58	192	7
TAP	58	256	2
TAP	58	288	0
STR	59	0	0
SUR	59	0	0	96	48	4
TAP	59	0	4
STR	59	96	7
SUL	59	96	7	96	48	3
BRK	59	192	0
TAP	60	0	3
TAP	60	64	3
TAP	60	96	4
TAP	60	160	4
TAP	60	192	3
TAP	60	256	3
TAP	60	288	4
TAP	60	352	4
TAP	61	0	3
TAP	61	64	3
TAP	61	96	4
TAP	61	160	4
TAP	61	192	3
TAP	61	256	3
TAP	61	288	4
TAP	61	352	4
TAP	62	0	2
TAP	62	64	2
TAP	62	96	5
TAP	62	160	5
TAP	62	192	3
TAP	62	256	3
TAP	62	288	4
TAP	62	352	4
TAP	63	0	2
TAP	63	64	2
TAP	63	96	5
TAP	63	160	5
TAP	63	192	3
TAP	63	256	3
TAP	63	288	4
STR	64	0	3
SI_	64	0	3	96	48	1
STR	64	0	4
SI_	64	0	4	96	48	0
STR	64	192	3
SI_	64	192	3	96	48	7
STR	64	192	4
SI_	64	192	4	96	48	6
STR	65	0	3
SI_	65	0	3	96	48	0
STR	65	0	4
SI_	65	0	4	96	48	7
TAP	65	192	1
TAP	65	192	6
STR	66	0	5
SI_	66	0	5	96	48	0
HLD	66	0	6	96
HLD	66	192	1	96
STR	66	192	2
SCR	66	192	2	96	48	5
STR	67	0	0
SI_	67	0	0	96	48	4
STR	67	0	7
SI_	67	0	7	96	48	3
TAP	67	192	0
TAP	67	192	7
TAP	67	288	2
TAP	67	288	5
TAP	68	0	4
TAP	68	64	4
TAP	68	96	3
TAP	68	160	3
TAP	68	192	5
TAP	68	256	5
TAP	68	288	2
TAP	68	352	2
TAP	69	0	4
TAP	69	64	4
TAP	69	96	3
TAP	69	160	3
TAP	69	192	5
TAP	69	256	5
TAP	69	288	2
TAP	69	352	2
TAP	70	0	4
TAP	70	64	4
TAP	70	96	6
TAP	70	160	6
TAP	70	192	4
TAP	70	256	4
TAP	70	288	3
TAP	70	352	3
TAP	71	0	1
TAP	71	64	1
TAP	71	96	3
TAP	71	160	3
TAP	71	192	4
TAP	71	256	4
TAP	71	288	3
STR	72	0	3
SI_	72	0	3	96	48	7
STR	72	0	4
SI_	72	0	4	96	48	6
STR	72	192	3
SI_	72	192	3	96	48	1
STR	72	192	4
SI_	72	192	4	96	48	0
STR	73	0	3
SI_	73	0	3	96	48	0
STR	73	0	4
SI_	73	0	4	96	48	7
TAP	73	192	1
TAP	73	192	6
HLD	74	0	1	96
STR	74	0	2
SI_	74	0	2	96	48	7
STR	74	192	5
SCL	74	192	5	96	48	2
HLD	74	192	6	96
STR	75	0	0
SI_	75	0	0	96	48	4
STR	75	0	7
SI_	75	0	7	96	48	3
TAP	75	192	0
TAP	75	192	7
TAP	75	288	2
TAP	75	288	5
TAP	76	0	3
TAP	76	64	3
TAP	76	96	4
TAP	76	160	4
TAP	76	192	2
TAP	76	256	2
TAP	76	288	5
TAP	76	352	5
TAP	77	0	3
TAP	77	64	3
TAP	77	96	4
TAP	77	160	4
TAP	77	192	2
TAP	77	256	2
TAP	77	288	5
TAP	77	352	5
TAP	78	0	3
TAP	78	64	3
TAP	78	96	1
TAP	78	160	1
TAP	78	192	3
TAP	78	256	3
TAP	78	288	4
TAP	78	352	4
TAP	79	0	6
TAP	79	64	6
TAP	79	96	4
TAP	79	160	4
TAP	79	192	3
TAP	79	256	3
TAP	79	288	4
TAP	80	0	0
HLD	80	0	7	64
TAP	80	64	5
TAP	80	96	7
HLD	80	192	0	64
TAP	80	192	7
TAP	80	256	2
TAP	80	288	0
STR	81	0	0
SUR	81	0	0	96	48	4
TAP	81	0	4
STR	81	96	7
SUL	81	96	7	96	48	3
TAP	81	192	0
TAP	81	288	2
TAP	81	288	5
TAP	82	0	3
TAP	82	64	3
TAP	82	96	4
TAP	82	160	4
TAP	82	192	3
TAP	82	256	3
TAP	82	288	1
TAP	82	352	1
TAP	83	0	3
TAP	83	64	3
TAP	83	96	4
TAP	83	160	4
TAP	83	192	6
TAP	83	256	6
TAP	83	288	4
TAP	84	0	0
HLD	84	0	7	64
TAP	84	64	5
TAP	84	96	7
HLD	84	192	0	64
TAP	84	192	7
TAP	84	256	2
TAP	84	288	0
STR	85	0	0
SUR	85	0	0	96	48	4
TAP	85	0	4
STR	85	96	7
SUL	85	96	7	96	48	3
TAP	85	192	0
TAP	86	0	0
HLD	86	0	7	64
TAP	86	64	5
TAP	86	96	7
HLD	86	192	0	64
TAP	86	192	7
TAP	86	256	2
TAP	86	288	0
STR	87	0	0
SUR	87	0	0	96	48	4
TAP	87	0	4
STR	87	96	7
SUL	87	96	7	96	48	3
STR	87	192	0
SUR	87	192	0	96	48	4
TAP	87	288	7
BST	88	0	1
SI_	88	0	1	96	48	4
BRK	88	0	6
STR	88	96	5
SI_	88	96	5	96	48	0
STR	88	192	2
SI_	88	192	2	96	48	7
STR	88	288	6
SI_	88	288	6	96	48	3
STR	89	0	2
SI_	89	0	2	96	48	7
STR	89	96	5
SI_	89	96	5	96	48	0
STR	89	192	3
SI_	89	192	3	96	48	7
STR	89	288	4
SI_	89	288	4	96	48	0
TAP	90	0	2
TAP	90	96	1
TAP	90	96	3
TAP	90	192	6
TAP	90	192	7
TAP	90	256	0
TAP	90	256	5
TAP	90	352	2
STR	90	352	3
SCR	90	352	3	96	80	0
BRK	91	192	3
BRK	91	192	6
STR	92	0	1
SI_	92	0	1	96	48	4
STR	92	0	6
SI_	92	0	6	96	48	3
STR	92	192	1
SI_	92	192	1	96	48	5
STR	92	192	6
SI_	92	192	6	96	48	2
STR	93	0	0
SI_	93	0	0	96	48	4
STR	93	0	6
SI_	93	0	6	96	48	2
STR	93	192	1
SI_	93	192	1	96	48	5
STR	93	192	7
SI_	93	192	7	96	48	3
TAP	94	0	4
TAP	94	96	3
TAP	94	96	5
TAP	94	192	2
TAP	94	192	6
STR	94	288	1
SI_	94	288	1	96	48	5
TAP	94	288	7
STR	95	0	6
SI_	95	0	6	96	48	3
STR	95	96	0
SI_	95	96	0	96	48	4
BRK	95	192	7
HLD	96	0	0	96
TAP	96	0	4
TAP	96	96	4
HLD	96	192	0	96
TAP	96	192	4
STR	96	288	4
SI_	96	288	4	96	48	7
STR	97	0	3
SI_	97	0	3	96	48	0
STR	97	96	4
SI_	97	96	4	96	48	7
TAP	97	192	3
HLD	98	0	0	96
TAP	98	0	4
TAP	98	96	4
HLD	98	192	0	96
TAP	98	192	4
STR	98	288	4
SI_	98	288	4	96	48	0
STR	99	0	3
SI_	99	0	3	96	48	1
STR	99	96	5
SI_	99	96	5	96	48	7
TAP	99	192	4
HLD	100	0	0	96
TAP	100	0	4
TAP	100	96	4
HLD	100	192	0	96
TAP	100	192	4
STR	100	288	4
SI_	100	288	4	96	48	0
STR	101	0	3
SI_	101	0	3	96	48	7
STR	101	96	5
SI_	101	96	5	96	48	1
TAP	101	192	2
HLD	102	0	0	96
TAP	102	0	4
TAP	102	96	4
HLD	102	192	0	96
TAP	102	192	4
STR	102	288	4
SCR	102	288	4	96	96	0
STR	103	0	0
SCR	103	0	0	96	96	4
STR	103	96	4
SCR	103	96	4	96	96	0
TAP	103	192	0
BRK	103	288	4
STR	104	0	3
SI_	104	0	3	96	48	1
STR	104	0	4
SI_	104	0	4	96	48	0
STR	104	192	3
SI_	104	192	3	96	48	7
STR	104	192	4
SI_	104	192	4	96	48	6
STR	105	0	3
SI_	105	0	3	96	48	7
TAP	105	0	4
STR	105	96	4
SI_	105	96	4	96	48	0
TAP	105	192	3
STR	106	0	5
SCL	106	0	5	96	48	2
TAP	106	96	0
STR	106	192	1
SCL	106	192	1	96	48	6
TAP	106	288	5
STR	107	0	4
SI_	107	0	4	96	48	0
STR	107	0	5
SI_	107	0	5	96	48	1
TAP	107	192	2
TAP	107	192	7
TAP	107	288	3
TAP	107	288	4
STR	108	0	2
SI_	108	0	2	96	48	0
STR	108	0	3
SI_	108	0	3	96	48	7
STR	108	192	4
SI_	108	192	4	96	48	0
STR	108	192	5
SI_	108	192	5	96	48	7
TAP	109	0	2
TAP	109	0	5
STR	109	96	3
SI_	109	96	3	96	96	0
TAP	109	96	4
HLD	109	192	7	96
STR	110	0	6
SI_	110	0	6	96	48	2
STR	110	0	7
SI_	110	0	7	96	48	3
STR	110	192	0
SI_	110	192	0	96	48	4
STR	110	192	1
SI_	110	192	1	96	48	5
TAP	111	0	2
TAP	111	0	3
TAP	111	96	4
TAP	111	96	5
TAP	111	192	1
TAP	111	192	6
TAP	112	0	0
HLD	112	0	7	64
TAP	112	64	5
TAP	112	96	7
HLD	112	192	0	64
TAP	112	192	7
TAP	112	256	2
TAP	112	288	0
STR	113	0	0
SUR	113	0	0	96	48	5
TAP	113	0	4
STR	113	96	7
SUL	113	96	7	96	48	2
TAP	113	192	0
BRK	113	288	0
TAP	114	0	0
HLD	114	0	7	64
TAP	114	64	5
TAP	114	96	7
HLD	114	192	0	64
TAP	114	192	7
TAP	114	256	2
TAP	114	288	0
BST	115	0	0
SUR	115	0	0	96	48	5
BRK	115	0	4
BST	115	96	7
SUL	115	96	7	96	48	2
BRK	115	192	0
TAP	115	288	1
TAP	115	288	6
TAP	116	0	3
TAP	116	0	4
TAP	116	64	2
TAP	116	96	3
TAP	116	160	5
TAP	116	192	4
TAP	116	256	1
TAP	116	288	3
TAP	116	352	6
TAP	117	0	4
TAP	117	64	1
TAP	117	96	3
TAP	117	160	6
TAP	117	192	4
TAP	117	288	0
TAP	117	288	2
TAP	118	0	3
TAP	118	0	4
TAP	118	64	5
TAP	118	96	4
TAP	118	160	2
TAP	118	192	3
TAP	118	256	6
TAP	118	288	4
TAP	118	352	1
TAP	119	0	3
TAP	119	64	6
TAP	119	96	4
TAP	119	160	1
TAP	119	192	3
TAP	119	288	5
TAP	119	288	7
TAP	120	0	2
TAP	120	0	3
TAP	120	64	2
TAP	120	64	3
TAP	120	160	3
TAP	120	160	5
TAP	120	256	2
TAP	120	256	4
TAP	120	352	3
TAP	120	352	5
TAP	121	64	2
TAP	121	64	4
TAP	121	160	2
TAP	121	192	3
TAP	121	256	3
TAP	121	288	2
BRK	121	352	3
BRK	121	352	7

T_REC_TAP	447
T_REC_BRK	19
T_REC_XTP	0
T_REC_HLD	36
T_REC_XHO	0
T_REC_STR	163
T_REC_BST	6
T_REC_XST	0
T_REC_TTP	0
T_REC_THO	0
T_REC_SLD	169
T_REC_ALL	840
T_NUM_TAP	610
T_NUM_BRK	25
T_NUM_HLD	36
T_NUM_SLD	169
T_NUM_ALL	840
T_JUDGE_TAP	635
T_JUDGE_HLD	114
T_JUDGE_SLD	169
T_JUDGE_ALL	918
TTM_EACHPAIRS	154
TTM_SCR_TAP	305000
TTM_SCR_BRK	65000
TTM_SCR_HLD	36000
TTM_SCR_SLD	253500
TTM_SCR_ALL	659500
TTM_SCR_S	637300
TTM_SCR_SS	657000
TTM_RAT_ACV	10038

