VERSION	0.00.00	1.03.00
FES_MODE	0
BPM_DEF	220.000	220.000	220.000	220.000
MET_DEF	4	4
RESOLUTION	384
CLK_DEF	384
COMPATIBLE_CODE	MA2

BPM	0	0	220.000

HLD	2	0	5	576
TAP	2	192	4
TAP	2	288	4
TAP	3	0	4
TAP	3	192	4
TAP	3	288	3
TAP	3	288	6
HLD	4	0	2	576
TAP	4	192	3
TAP	4	288	3
TAP	5	0	3
TAP	5	192	3
TAP	5	288	1
TAP	5	288	4
HLD	6	0	5	384
TAP	6	192	4
TAP	6	288	4
TAP	7	0	4
TAP	7	96	3
TAP	7	96	4
TAP	7	192	4
TAP	7	192	6
TAP	7	288	1
TAP	7	288	3
HLD	8	0	2	384
TAP	8	192	3
TAP	8	288	3
TAP	9	0	3
TAP	9	96	3
TAP	9	96	4
TAP	9	192	1
TAP	9	192	3
TAP	9	288	4
TAP	9	288	6
HLD	10	0	5	384
TAP	10	192	4
TAP	10	288	4
TAP	11	0	4
TAP	11	96	3
TAP	11	96	4
TAP	11	192	4
TAP	11	192	6
TAP	11	288	1
TAP	11	288	3
HLD	12	0	2	384
TAP	12	192	3
TAP	12	288	3
TAP	13	0	3
TAP	13	96	3
TAP	13	96	4
TAP	13	192	1
TAP	13	192	3
TAP	13	288	4
TAP	13	288	6
HLD	14	0	5	192
HLD	14	192	4	192
TAP	15	0	3
TAP	15	96	3
TAP	15	192	2
TAP	15	192	4
HLD	16	0	2	192
HLD	16	192	3	192
TAP	17	0	4
TAP	17	96	4
TAP	17	192	3
TAP	17	192	5
HLD	18	0	5	192
HLD	18	192	4	192
TAP	19	0	3
TAP	19	96	3
TAP	19	192	2
TAP	19	192	4
TAP	20	0	2
TAP	20	96	2
TAP	20	192	3
TAP	20	288	3
TAP	21	0	4
TAP	21	96	4
TAP	21	192	2
TAP	21	192	5
HLD	22	0	1	192
HLD	22	192	2	192
TAP	23	0	3
TAP	23	96	3
TAP	23	192	2
TAP	23	192	4
HLD	24	0	6	192
HLD	24	192	5	192
TAP	25	0	4
TAP	25	96	4
TAP	25	192	3
TAP	25	192	5
HLD	26	0	1	192
HLD	26	192	2	192
TAP	27	0	3
TAP	27	96	3
TAP	27	192	2
TAP	27	192	4
TAP	27	288	5
TAP	28	0	4
TAP	28	96	4
TAP	28	192	3
TAP	28	288	3
TAP	29	0	3
TAP	29	0	4
TAP	29	96	2
TAP	29	96	5
TAP	29	192	1
TAP	29	192	6
STR	30	0	1
SI_	30	0	1	96	96	4
STR	30	192	6
SI_	30	192	6	96	96	3
STR	31	0	1
SI_	31	0	1	96	96	5
STR	31	192	6
SI_	31	192	6	96	96	2
STR	32	0	0
SI_	32	0	0	96	96	4
STR	32	192	7
SI_	32	192	7	96	96	3
HLD	33	0	0	192
TAP	33	192	7
HLD	34	0	6	192
HLD	34	192	7	192
HLD	35	0	0	192
HLD	35	192	1	384
HLD	36	0	6	192
STR	37	0	0
SV_	37	0	0	96	192	6
STR	37	0	1
SUR	37	0	1	96	192	6
TAP	38	0	2
TAP	38	96	2
TAP	38	192	3
TAP	38	288	1
TAP	39	0	5
TAP	39	96	5
TAP	39	192	4
TAP	39	288	6
TAP	40	0	3
TAP	40	0	4
TAP	40	96	3
TAP	40	96	4
TAP	40	192	2
TAP	40	192	5
TAP	40	288	2
TAP	40	288	5
TAP	41	0	1
TAP	41	0	6
TAP	41	96	1
TAP	41	96	6
BRK	41	192	0
BRK	41	192	7
HLD	42	0	0	96
TAP	42	0	7
TAP	42	96	2
TAP	42	192	0
HLD	42	192	7	96
TAP	42	288	5
TAP	43	0	0
TAP	43	0	1
TAP	43	96	2
TAP	43	96	7
TAP	43	192	3
TAP	43	192	6
TAP	44	0	5
TAP	44	96	4
TAP	44	96	6
TAP	44	192	2
TAP	44	288	1
TAP	44	288	3
TAP	45	0	6
TAP	45	0	7
TAP	45	96	6
TAP	45	96	7
TAP	45	192	1
TAP	45	192	4
TAP	46	0	3
HLD	46	0	4	96
TAP	46	96	6
HLD	46	192	3	96
TAP	46	192	4
TAP	46	288	1
STR	47	0	4
SCL	47	0	4	96	144	1
STR	47	0	5
SCR	47	0	5	96	144	0
TAP	48	0	2
TAP	48	96	1
TAP	48	96	3
TAP	48	192	5
TAP	48	288	4
TAP	48	288	6
BRK	49	0	0
BRK	49	96	1
BRK	49	192	2
BRK	49	288	3
TAP	50	0	0
HLD	50	0	7	96
TAP	50	96	5
HLD	50	192	0	96
TAP	50	192	7
TAP	50	288	2
TAP	51	0	6
TAP	51	0	7
TAP	51	96	0
TAP	51	96	5
TAP	51	192	1
TAP	51	192	4
HLD	52	0	1	96
TAP	52	96	2
HLD	52	192	6	96
TAP	52	288	5
TAP	53	0	0
TAP	53	0	1
TAP	53	96	0
TAP	53	96	1
TAP	53	192	3
TAP	53	192	6
HLD	54	0	3	96
TAP	54	0	4
TAP	54	96	1
TAP	54	192	3
HLD	54	192	4	96
TAP	54	288	6
TAP	55	0	2
TAP	55	0	3
TAP	55	96	1
TAP	55	96	4
TAP	55	192	0
TAP	55	192	5
HLD	56	0	6	96
TAP	56	96	5
HLD	56	192	1	96
TAP	56	288	2
TAP	57	0	3
TAP	57	0	4
TAP	57	96	2
TAP	57	96	5
TAP	57	192	1
TAP	57	192	6
TAP	58	0	4
TAP	58	0	6
TAP	58	96	3
TAP	58	96	4
TAP	58	192	1
TAP	58	192	3
TAP	58	288	3
TAP	58	288	4
TAP	59	0	0
TAP	59	0	4
TAP	59	96	3
TAP	59	96	7
TAP	59	192	0
TAP	59	192	4
TAP	60	0	3
TAP	60	96	3
TAP	60	192	4
TAP	60	288	4
TAP	61	0	2
TAP	61	96	2
TAP	61	192	5
TAP	61	288	5
TAP	62	0	3
TAP	62	96	3
TAP	62	192	4
TAP	62	288	4
TAP	63	0	2
TAP	63	96	2
TAP	63	192	5
TAP	63	288	5
HLD	64	0	3	192
TAP	64	96	4
HLD	64	192	4	192
TAP	64	288	3
HLD	65	0	3	192
TAP	65	96	4
HLD	65	192	4	192
TAP	65	288	3
HLD	66	0	3	192
TAP	66	96	4
HLD	66	192	4	192
TAP	66	288	3
HLD	67	0	3	192
TAP	67	96	4
TAP	67	192	4
TAP	67	288	3
TAP	67	288	4
TAP	68	0	0
TAP	68	0	1
TAP	68	96	3
TAP	68	96	4
TAP	68	192	6
TAP	68	192	7
TAP	68	288	3
TAP	68	288	4
TAP	69	0	0
TAP	69	0	7
TAP	69	96	3
TAP	69	96	4
TAP	69	192	1
TAP	69	192	6
HLD	70	0	6	96
TAP	70	96	5
HLD	70	192	1	96
TAP	70	288	2
TAP	71	0	0
TAP	71	0	7
TAP	71	96	3
TAP	71	96	4
TAP	71	192	1
TAP	71	192	6
HLD	72	0	4	192
TAP	72	96	3
HLD	72	192	3	192
TAP	72	288	4
HLD	73	0	4	192
TAP	73	96	3
HLD	73	192	3	192
TAP	73	288	4
HLD	74	0	4	192
TAP	74	96	3
HLD	74	192	3	192
TAP	74	288	4
HLD	75	0	4	192
TAP	75	96	3
TAP	75	192	3
TAP	75	288	3
TAP	75	288	4
TAP	76	0	6
TAP	76	0	7
TAP	76	96	3
TAP	76	96	4
TAP	76	192	0
TAP	76	192	1
TAP	76	288	3
TAP	76	288	4
TAP	77	0	0
TAP	77	0	7
TAP	77	96	3
TAP	77	96	4
TAP	77	192	1
TAP	77	192	6
HLD	78	0	1	96
TAP	78	96	2
HLD	78	192	6	96
TAP	78	288	5
TAP	79	0	0
TAP	79	0	7
TAP	79	96	3
TAP	79	96	4
TAP	79	192	1
TAP	79	192	6
HLD	80	0	4	96
TAP	80	96	3
HLD	80	192	2	96
TAP	80	288	3
HLD	81	0	5	96
TAP	81	96	4
TAP	81	192	3
TAP	81	288	3
TAP	81	288	4
TAP	82	0	4
TAP	82	0	6
TAP	82	96	3
TAP	82	96	4
TAP	82	192	1
TAP	82	192	3
TAP	82	288	3
TAP	82	288	4
TAP	83	0	3
TAP	83	0	7
TAP	83	96	0
TAP	83	96	4
TAP	83	192	3
TAP	83	192	7
HLD	84	0	3	96
TAP	84	96	4
HLD	84	192	5	96
TAP	84	288	4
HLD	85	0	2	96
TAP	85	96	3
TAP	85	192	4
TAP	85	288	3
TAP	85	288	4
TAP	86	0	4
TAP	86	0	6
TAP	86	96	3
TAP	86	96	4
TAP	86	192	1
TAP	86	192	3
TAP	86	288	3
TAP	86	288	4
TAP	87	0	3
TAP	87	0	7
TAP	87	96	0
TAP	87	96	4
TAP	87	192	3
TAP	87	192	7
TAP	87	288	0
TAP	87	288	4
STR	88	0	7
SCL	88	0	7	96	384	0
STR	90	0	6
SI_	90	0	6	96	96	3
STR	90	192	1
SI_	90	192	1	96	96	4
STR	91	0	7
SI_	91	0	7	96	96	3
BRK	91	192	0
HLD	92	0	4	96
HLD	92	96	5	96
HLD	92	192	6	96
HLD	92	288	7	96
HLD	93	0	0	96
HLD	93	96	1	96
HLD	93	192	2	96
HLD	93	288	3	96
TAP	94	0	4
TAP	94	96	4
TAP	94	192	3
TAP	94	288	3
TAP	95	0	3
TAP	95	0	4
TAP	95	96	2
TAP	95	96	5
TAP	95	192	1
TAP	95	192	6
TAP	96	0	3
TAP	96	0	7
TAP	96	192	0
TAP	96	192	4
TAP	97	0	6
TAP	97	0	7
TAP	97	96	0
TAP	97	96	5
TAP	97	192	1
TAP	97	192	4
TAP	98	0	0
TAP	98	0	4
TAP	98	192	3
TAP	98	192	7
TAP	99	0	0
TAP	99	0	1
TAP	99	96	2
TAP	99	96	7
TAP	99	192	3
TAP	99	192	6
TAP	100	0	3
TAP	100	0	7
TAP	100	192	1
TAP	100	192	5
TAP	101	0	2
TAP	101	0	3
TAP	101	96	1
TAP	101	96	4
TAP	101	192	0
TAP	101	192	5
TAP	102	0	0
TAP	102	0	4
TAP	102	192	2
TAP	102	192	6
TAP	103	0	4
TAP	103	0	5
TAP	103	96	3
TAP	103	96	6
TAP	103	192	2
TAP	103	192	7
TAP	103	288	0
TAP	103	288	1
TAP	104	0	2
HLD	104	0	5	96
TAP	104	96	7
HLD	104	192	2	96
TAP	104	192	5
TAP	104	288	0
TAP	105	0	6
TAP	105	0	7
TAP	105	96	2
TAP	105	96	3
TAP	105	192	1
TAP	105	192	4
TAP	106	0	1
TAP	106	96	0
TAP	106	96	2
TAP	106	192	6
TAP	106	288	5
TAP	106	288	7
TAP	107	0	2
TAP	107	0	3
TAP	107	96	2
TAP	107	96	3
TAP	107	192	0
TAP	107	192	5
HLD	108	0	2	96
TAP	108	0	5
TAP	108	96	0
TAP	108	192	2
HLD	108	192	5	96
TAP	108	288	7
TAP	109	0	0
TAP	109	0	1
TAP	109	96	4
TAP	109	96	5
TAP	109	192	3
TAP	109	192	6
HLD	110	0	1	96
TAP	110	96	2
HLD	110	192	6	96
TAP	110	288	5
TAP	111	0	0
TAP	111	0	7
TAP	111	96	0
TAP	111	96	7
TAP	111	192	1
TAP	111	192	6
TAP	112	0	4
TAP	112	0	6
TAP	112	96	3
TAP	112	96	4
TAP	112	192	1
TAP	112	192	3
TAP	112	288	3
TAP	112	288	4
TAP	113	0	0
TAP	113	0	4
TAP	113	96	3
TAP	113	96	7
TAP	113	192	0
TAP	113	192	4
TAP	114	0	4
TAP	114	0	6
TAP	114	96	3
TAP	114	96	4
TAP	114	192	1
TAP	114	192	3
TAP	114	288	3
TAP	114	288	4
BRK	115	0	0
BRK	115	0	4
BRK	115	96	3
BRK	115	96	7
BRK	115	192	0
BRK	115	192	4
TAP	116	0	5
TAP	116	0	7
TAP	116	96	6
TAP	116	192	0
TAP	116	192	2
TAP	116	288	1
TAP	117	0	5
TAP	117	0	7
TAP	117	96	6
TAP	117	192	1
TAP	117	192	3
TAP	117	288	4
TAP	117	288	6
TAP	118	0	0
TAP	118	0	2
TAP	118	96	1
TAP	118	192	5
TAP	118	192	7
TAP	118	288	6
TAP	119	0	0
TAP	119	0	2
TAP	119	96	1
TAP	119	192	4
TAP	119	192	6
TAP	119	288	1
TAP	119	288	3
TAP	120	0	4
TAP	120	96	4
TAP	120	192	3
TAP	120	288	3
TAP	121	0	4
TAP	121	0	5
STR	121	96	3
SXR	121	96	3	96	288	5
TAP	121	96	6

T_REC_TAP	463
T_REC_BRK	13
T_REC_XTP	0
T_REC_HLD	74
T_REC_XHO	0
T_REC_STR	15
T_REC_BST	0
T_REC_XST	0
T_REC_TTP	0
T_REC_THO	0
T_REC_SLD	15
T_REC_ALL	580
T_NUM_TAP	478
T_NUM_BRK	13
T_NUM_HLD	74
T_NUM_SLD	15
T_NUM_ALL	580
T_JUDGE_TAP	491
T_JUDGE_HLD	260
T_JUDGE_SLD	15
T_JUDGE_ALL	766
TTM_EACHPAIRS	177
TTM_SCR_TAP	239000
TTM_SCR_BRK	33800
TTM_SCR_HLD	74000
TTM_SCR_SLD	22500
TTM_SCR_ALL	369300
TTM_SCR_S	357000
TTM_SCR_SS	368000
TTM_RAT_ACV	10035

