VERSION	0.00.00	1.03.00
FES_MODE	0
BPM_DEF	220.000	220.000	220.000	220.000
MET_DEF	4	4
RESOLUTION	384
CLK_DEF	384
COMPATIBLE_CODE	MA2

BPM	0	0	220.000

TAP	2	0	0
TAP	2	192	0
TAP	3	0	1
TAP	3	96	1
TAP	3	192	1
TAP	4	0	2
TAP	4	192	2
TAP	5	0	3
TAP	5	96	3
TAP	5	192	3
TAP	6	0	7
TAP	6	192	7
TAP	7	0	6
TAP	7	96	6
TAP	7	192	6
TAP	8	0	5
TAP	8	192	5
TAP	9	0	4
TAP	9	96	4
TAP	9	192	4
TAP	10	0	3
TAP	10	192	3
TAP	11	0	2
TAP	11	96	2
TAP	11	192	2
TAP	12	0	4
TAP	12	192	4
TAP	13	0	2
TAP	13	0	5
TAP	13	96	2
TAP	13	96	5
BRK	13	192	3
BRK	13	192	4
TAP	14	0	3
TAP	14	0	4
TAP	14	192	2
TAP	14	192	4
TAP	15	0	3
TAP	15	96	3
TAP	15	192	2
TAP	16	0	3
TAP	16	0	4
TAP	16	192	3
TAP	16	192	5
TAP	17	0	4
TAP	17	96	4
TAP	17	192	5
TAP	18	0	2
TAP	18	0	3
TAP	18	192	1
TAP	18	192	3
TAP	19	0	2
TAP	19	96	2
TAP	19	192	1
TAP	20	0	4
TAP	20	0	5
TAP	20	192	4
TAP	20	192	6
TAP	21	0	5
TAP	21	96	5
TAP	21	192	6
TAP	22	0	0
TAP	22	0	7
TAP	22	192	0
TAP	22	192	6
TAP	23	0	7
TAP	23	96	7
TAP	23	192	6
TAP	24	0	0
TAP	24	0	7
TAP	24	192	1
TAP	24	192	7
TAP	25	0	0
TAP	25	96	0
TAP	25	192	1
TAP	26	0	6
TAP	26	0	7
TAP	26	192	5
TAP	26	192	7
TAP	27	0	6
TAP	27	96	6
TAP	27	192	5
TAP	28	0	0
TAP	28	0	1
TAP	28	192	2
TAP	28	192	7
TAP	29	0	0
TAP	29	0	1
TAP	29	96	2
TAP	29	96	7
TAP	29	192	3
TAP	29	192	6
HLD	30	0	5	192
TAP	30	192	4
HLD	31	0	2	192
TAP	31	192	3
HLD	32	0	5	192
TAP	32	192	4
TAP	33	0	2
TAP	33	0	3
TAP	33	192	4
TAP	33	192	5
HLD	34	0	6	192
TAP	34	192	7
HLD	35	0	1	192
TAP	35	192	0
HLD	36	0	6	192
TAP	36	192	7
TAP	37	0	0
TAP	37	0	1
TAP	37	192	6
TAP	37	192	7
HLD	38	0	0	192
TAP	38	192	7
HLD	39	0	7	192
TAP	39	192	0
TAP	40	0	0
TAP	40	96	7
TAP	40	192	0
TAP	40	288	7
TAP	41	0	1
TAP	41	0	6
TAP	41	96	1
TAP	41	96	6
BRK	41	192	0
BRK	41	192	7
TAP	42	0	0
TAP	42	192	1
TAP	43	0	0
TAP	43	96	1
TAP	43	192	2
TAP	43	192	7
TAP	44	0	3
TAP	44	192	2
TAP	45	0	3
TAP	45	96	2
TAP	45	192	1
TAP	45	192	4
TAP	46	0	4
TAP	46	192	5
TAP	47	0	4
TAP	47	96	5
TAP	47	192	3
TAP	47	192	6
TAP	48	0	7
TAP	48	192	6
TAP	49	0	7
TAP	49	96	6
TAP	49	192	0
TAP	49	192	5
TAP	50	0	4
TAP	50	192	5
TAP	51	0	4
TAP	51	96	5
TAP	51	192	3
TAP	51	192	6
TAP	52	0	3
TAP	52	192	2
TAP	53	0	3
TAP	53	96	2
TAP	53	192	1
TAP	53	192	4
TAP	54	0	0
TAP	54	192	1
TAP	55	0	0
TAP	55	96	1
TAP	55	192	2
TAP	55	192	7
TAP	56	0	7
TAP	56	192	0
TAP	57	0	7
TAP	57	96	0
TAP	57	192	1
TAP	57	192	6
TAP	58	0	0
TAP	58	0	1
TAP	58	96	0
TAP	58	96	1
TAP	58	192	2
TAP	58	192	7
TAP	58	288	2
TAP	58	288	7
TAP	59	0	0
TAP	59	0	1
TAP	59	96	2
TAP	59	96	7
BRK	59	192	3
BST	59	192	6
SUR	59	192	6	96	480	1
TAP	64	0	1
TAP	64	96	0
TAP	64	192	0
TAP	65	0	6
TAP	65	96	7
TAP	65	192	7
TAP	66	0	1
TAP	66	96	1
TAP	66	192	0
TAP	66	288	0
TAP	67	0	7
TAP	67	96	7
TAP	67	192	6
TAP	68	0	0
TAP	68	0	1
TAP	68	96	0
TAP	68	96	1
TAP	68	192	6
TAP	68	192	7
TAP	69	0	6
TAP	69	0	7
TAP	69	96	6
TAP	69	96	7
TAP	69	192	0
TAP	69	192	1
TAP	70	0	0
TAP	70	0	1
TAP	70	96	0
TAP	70	96	1
TAP	70	192	6
TAP	70	192	7
TAP	70	288	6
TAP	70	288	7
TAP	71	0	0
TAP	71	0	1
TAP	71	96	2
TAP	71	96	7
TAP	71	192	3
TAP	71	192	6
TAP	72	0	5
TAP	72	96	4
TAP	72	192	4
TAP	73	0	2
TAP	73	96	3
TAP	73	192	3
TAP	74	0	5
TAP	74	96	5
TAP	74	192	4
TAP	74	288	4
TAP	75	0	3
TAP	75	96	3
TAP	75	192	2
TAP	76	0	4
TAP	76	0	5
TAP	76	96	4
TAP	76	96	5
TAP	76	192	2
TAP	76	192	3
TAP	77	0	2
TAP	77	0	3
TAP	77	96	2
TAP	77	96	3
TAP	77	192	4
TAP	77	192	5
TAP	78	0	4
TAP	78	0	5
TAP	78	96	4
TAP	78	96	5
TAP	78	192	2
TAP	78	192	3
TAP	78	288	2
TAP	78	288	3
TAP	79	0	4
TAP	79	0	5
TAP	79	96	3
TAP	79	96	6
TAP	79	192	2
TAP	79	192	7
TAP	80	0	0
TAP	80	96	0
TAP	80	192	1
TAP	80	288	1
TAP	81	0	0
TAP	81	0	1
TAP	81	96	2
TAP	81	96	7
TAP	81	192	3
TAP	81	192	6
TAP	82	0	7
TAP	82	96	7
TAP	82	192	6
TAP	82	288	6
TAP	83	0	6
TAP	83	0	7
TAP	83	96	0
TAP	83	96	5
TAP	83	192	1
TAP	83	192	4
TAP	84	0	3
TAP	84	96	3
TAP	84	192	2
TAP	84	288	2
TAP	85	0	2
TAP	85	0	3
TAP	85	96	1
TAP	85	96	4
TAP	85	192	0
TAP	85	192	5
TAP	86	0	5
TAP	86	96	4
TAP	86	192	5
TAP	86	288	4
TAP	87	0	4
TAP	87	0	5
TAP	87	96	3
TAP	87	96	6
TAP	87	192	2
TAP	87	192	7
TAP	87	288	2
TAP	87	288	7
HLD	88	0	2	576
HLD	88	0	7	576
TAP	90	0	1
TAP	90	96	1
TAP	90	192	2
TAP	91	0	2
TAP	91	96	2
TAP	91	192	3
TAP	92	0	6
TAP	92	96	6
TAP	92	192	5
TAP	93	0	5
TAP	93	96	5
TAP	93	192	4
TAP	94	0	3
TAP	94	96	4
TAP	94	192	3
TAP	94	288	4
TAP	95	0	3
TAP	95	0	4
TAP	95	96	2
TAP	95	96	5
BRK	95	192	1
BRK	95	192	6
TAP	96	0	0
TAP	96	0	5
TAP	96	192	0
TAP	96	192	5
TAP	97	0	6
TAP	97	0	7
TAP	97	96	6
TAP	97	96	7
TAP	97	192	0
TAP	97	192	5
TAP	98	0	3
TAP	98	0	6
TAP	98	192	3
TAP	98	192	6
TAP	99	0	4
TAP	99	0	5
TAP	99	96	4
TAP	99	96	5
TAP	99	192	3
TAP	99	192	6
TAP	100	0	1
TAP	100	0	4
TAP	100	192	1
TAP	100	192	4
TAP	101	0	2
TAP	101	0	3
TAP	101	96	2
TAP	101	96	3
TAP	101	192	1
TAP	101	192	4
TAP	102	0	2
TAP	102	0	7
TAP	102	192	2
TAP	102	192	7
TAP	103	0	0
TAP	103	0	1
TAP	103	96	0
TAP	103	96	1
TAP	103	192	2
TAP	103	192	7
TAP	104	0	2
TAP	104	96	3
TAP	104	192	2
TAP	104	288	3
TAP	105	0	2
TAP	105	0	3
TAP	105	96	2
TAP	105	96	3
TAP	105	192	1
TAP	105	192	4
TAP	106	0	5
TAP	106	96	4
TAP	106	192	5
TAP	106	288	4
TAP	107	0	4
TAP	107	0	5
TAP	107	96	4
TAP	107	96	5
TAP	107	192	3
TAP	107	192	6
TAP	108	0	7
TAP	108	96	6
TAP	108	192	7
TAP	108	288	6
TAP	109	0	6
TAP	109	0	7
TAP	109	96	6
TAP	109	96	7
TAP	109	192	0
TAP	109	192	5
TAP	110	0	0
TAP	110	96	7
TAP	110	192	0
TAP	110	288	7
TAP	111	0	0
TAP	111	0	7
TAP	111	96	1
TAP	111	96	6
TAP	111	192	2
TAP	111	192	5
TAP	112	0	6
TAP	112	0	7
TAP	112	96	6
TAP	112	96	7
TAP	112	192	0
TAP	112	192	5
TAP	112	288	0
TAP	112	288	5
TAP	113	0	6
TAP	113	0	7
TAP	113	96	0
TAP	113	96	5
TAP	113	192	1
TAP	113	192	4
TAP	114	0	0
TAP	114	0	1
TAP	114	96	0
TAP	114	96	1
TAP	114	192	2
TAP	114	192	7
TAP	114	288	2
TAP	114	288	7
TAP	115	0	0
TAP	115	0	1
TAP	115	96	2
TAP	115	96	7
BRK	115	192	3
BRK	115	192	6
TAP	116	0	5
TAP	116	96	4
TAP	116	192	5
TAP	116	288	4
TAP	117	0	4
TAP	117	0	5
TAP	117	96	4
TAP	117	96	5
TAP	117	192	3
TAP	117	192	6
TAP	118	0	2
TAP	118	96	3
TAP	118	192	2
TAP	118	288	3
TAP	119	0	2
TAP	119	0	3
TAP	119	96	2
TAP	119	96	3
TAP	119	192	1
TAP	119	192	4
TAP	120	0	3
TAP	120	0	5
TAP	120	96	3
TAP	120	96	5
TAP	120	192	2
TAP	120	192	4
TAP	120	288	2
TAP	120	288	4
TAP	121	0	3
TAP	121	96	4
BST	121	192	3
SI_	121	192	3	96	384	0
BST	121	192	4
SI_	121	192	4	96	384	7

T_REC_TAP	450
T_REC_BRK	9
T_REC_XTP	0
T_REC_HLD	10
T_REC_XHO	0
T_REC_STR	0
T_REC_BST	3
T_REC_XST	0
T_REC_TTP	0
T_REC_THO	0
T_REC_SLD	3
T_REC_ALL	475
T_NUM_TAP	450
T_NUM_BRK	12
T_NUM_HLD	10
T_NUM_SLD	3
T_NUM_ALL	475
T_JUDGE_TAP	462
T_JUDGE_HLD	56
T_JUDGE_SLD	3
T_JUDGE_ALL	521
TTM_EACHPAIRS	144
TTM_SCR_TAP	225000
TTM_SCR_BRK	31200
TTM_SCR_HLD	10000
TTM_SCR_SLD	4500
TTM_SCR_ALL	270700
TTM_SCR_S	261450
TTM_SCR_SS	269500
TTM_RAT_ACV	10044

