VERSION	0.00.00	1.03.00
FES_MODE	0
BPM_DEF	220.000	220.000	220.000	220.000
MET_DEF	4	4
RESOLUTION	384
CLK_DEF	384
COMPATIBLE_CODE	MA2

BPM	0	0	220.000

TAP	6	0	0
TAP	7	0	0
TAP	8	0	7
TAP	9	0	7
TAP	10	0	0
TAP	10	192	0
TAP	11	0	0
TAP	12	0	7
TAP	12	192	7
TAP	13	0	7
TAP	14	0	0
TAP	14	192	0
TAP	15	0	1
TAP	15	192	1
TAP	16	0	2
TAP	16	192	2
TAP	17	0	3
TAP	17	0	4
TAP	18	0	4
TAP	18	192	4
TAP	19	0	5
TAP	19	192	5
HLD	20	0	6	192
TAP	21	0	0
TAP	21	0	7
TAP	21	192	0
TAP	21	192	7
TAP	22	0	7
TAP	22	192	7
TAP	23	0	6
TAP	23	192	6
TAP	24	0	5
TAP	24	192	5
TAP	25	0	3
TAP	25	0	4
TAP	26	0	3
TAP	26	192	3
TAP	27	0	2
TAP	27	192	2
HLD	28	0	1	192
TAP	29	0	0
TAP	29	0	7
TAP	29	192	0
TAP	29	192	7
STR	30	0	7
SI_	30	0	7	96	672	3
TAP	33	0	1
TAP	33	192	1
TAP	34	0	2
TAP	34	192	2
TAP	35	0	3
TAP	35	192	3
HLD	36	0	4	192
HLD	36	0	5	192
TAP	37	0	6
TAP	37	192	6
TAP	38	0	7
TAP	38	192	7
TAP	39	0	0
TAP	39	192	0
TAP	40	0	0
TAP	40	0	7
TAP	40	192	0
TAP	40	192	7
TAP	41	0	1
TAP	41	0	6
BRK	41	192	1
BRK	41	192	6
TAP	42	0	0
TAP	42	192	0
TAP	43	0	1
TAP	43	96	1
TAP	43	192	1
TAP	44	0	2
TAP	44	96	2
TAP	44	192	2
TAP	45	0	3
TAP	45	96	3
TAP	45	192	3
TAP	46	0	4
TAP	46	192	4
TAP	47	0	5
TAP	47	96	5
TAP	47	192	5
TAP	48	0	6
TAP	48	96	6
TAP	48	192	6
HLD	49	0	0	192
HLD	49	0	7	192
TAP	50	0	7
TAP	50	192	7
TAP	51	0	6
TAP	51	96	6
TAP	51	192	6
TAP	52	0	5
TAP	52	96	5
TAP	52	192	5
TAP	53	0	4
TAP	53	96	4
TAP	53	192	4
TAP	54	0	3
TAP	54	192	3
TAP	55	0	2
TAP	55	96	2
TAP	55	192	2
TAP	56	0	1
TAP	56	96	1
TAP	56	192	1
HLD	57	0	0	192
HLD	57	0	7	192
TAP	58	0	0
TAP	58	192	7
TAP	59	0	0
TAP	59	0	7
TAP	59	96	0
TAP	59	96	7
BRK	59	192	0
BRK	59	192	7
HLD	64	0	0	192
TAP	65	0	0
TAP	65	192	0
TAP	66	0	1
TAP	66	96	1
TAP	66	192	1
TAP	67	0	0
TAP	67	96	0
TAP	67	192	0
HLD	68	0	7	192
TAP	69	0	7
TAP	69	192	7
TAP	70	0	6
TAP	70	96	6
TAP	70	192	6
TAP	71	0	7
TAP	71	96	7
TAP	71	192	7
HLD	72	0	0	192
TAP	73	0	0
TAP	73	192	0
TAP	74	0	1
TAP	74	96	1
TAP	74	192	1
TAP	75	0	0
TAP	75	0	1
TAP	75	96	0
TAP	75	96	1
TAP	75	192	0
TAP	75	192	1
HLD	76	0	7	192
TAP	77	0	7
TAP	77	192	7
TAP	78	0	6
TAP	78	96	6
TAP	78	192	6
TAP	79	0	6
TAP	79	0	7
TAP	79	96	6
TAP	79	96	7
TAP	79	192	6
TAP	79	192	7
TAP	80	0	0
TAP	80	192	1
TAP	81	0	0
TAP	81	96	0
TAP	81	192	0
TAP	82	0	7
TAP	82	192	6
TAP	83	0	7
TAP	83	96	7
TAP	83	192	7
TAP	84	0	0
TAP	84	192	1
TAP	85	0	0
TAP	85	0	1
TAP	85	96	0
TAP	85	96	1
TAP	85	192	0
TAP	85	192	1
TAP	86	0	7
TAP	86	192	6
TAP	87	0	6
TAP	87	0	7
TAP	87	96	6
TAP	87	96	7
TAP	87	192	6
TAP	87	192	7
HLD	88	0	0	384
HLD	88	0	1	384
TAP	90	0	2
TAP	90	192	2
TAP	91	0	3
TAP	91	192	3
TAP	91	192	4
TAP	92	0	5
TAP	92	192	5
TAP	93	0	6
TAP	93	192	6
TAP	94	0	7
TAP	94	96	7
TAP	94	192	7
TAP	95	0	0
TAP	95	96	0
TAP	95	192	0
TAP	96	0	0
TAP	96	0	7
TAP	96	192	0
TAP	96	192	7
TAP	97	0	1
TAP	97	0	6
TAP	97	96	1
TAP	97	96	6
TAP	97	192	1
TAP	97	192	6
TAP	98	0	0
TAP	98	96	0
TAP	98	192	1
TAP	99	0	7
TAP	99	96	7
TAP	99	192	6
TAP	100	0	0
TAP	100	0	7
TAP	100	192	0
TAP	100	192	7
TAP	101	0	1
TAP	101	0	6
TAP	101	96	1
TAP	101	96	6
TAP	101	192	1
TAP	101	192	6
TAP	102	0	7
TAP	102	96	7
TAP	102	192	6
TAP	103	0	0
TAP	103	96	0
TAP	103	192	1
HLD	104	0	2	192
TAP	105	0	2
TAP	105	96	3
TAP	105	192	2
TAP	106	0	3
TAP	106	96	3
TAP	106	192	3
TAP	107	0	4
TAP	107	96	4
TAP	107	192	4
HLD	108	0	5	192
TAP	109	0	5
TAP	109	96	4
TAP	109	192	5
TAP	110	0	4
TAP	110	96	4
TAP	110	192	4
TAP	111	0	3
TAP	111	96	3
BRK	111	192	3
TAP	112	0	5
TAP	112	192	4
TAP	113	0	4
TAP	113	0	5
TAP	113	96	4
TAP	113	96	5
TAP	113	192	4
TAP	113	192	5
TAP	114	0	2
TAP	114	192	3
TAP	115	0	2
TAP	115	0	3
TAP	115	96	2
TAP	115	96	3
BRK	115	192	2
BRK	115	192	3
TAP	116	0	1
TAP	116	192	1
TAP	117	0	0
TAP	117	192	0
TAP	118	0	7
TAP	118	192	7
TAP	119	0	6
TAP	119	192	6
STR	120	0	6
SI_	120	0	6	96	672	2

T_REC_TAP	254
T_REC_BRK	7
T_REC_XTP	0
T_REC_HLD	16
T_REC_XHO	0
T_REC_STR	2
T_REC_BST	0
T_REC_XST	0
T_REC_TTP	0
T_REC_THO	0
T_REC_SLD	2
T_REC_ALL	281
T_NUM_TAP	256
T_NUM_BRK	7
T_NUM_HLD	16
T_NUM_SLD	2
T_NUM_ALL	281
T_JUDGE_TAP	263
T_JUDGE_HLD	72
T_JUDGE_SLD	2
T_JUDGE_ALL	337
TTM_EACHPAIRS	46
TTM_SCR_TAP	128000
TTM_SCR_BRK	18200
TTM_SCR_HLD	16000
TTM_SCR_SLD	3000
TTM_SCR_ALL	165200
TTM_SCR_S	159600
TTM_SCR_SS	164500
TTM_RAT_ACV	10042

