VERSION	0.00.00	1.03.00
FES_MODE	0
BPM_DEF	210.000	210.000	210.000	210.000
MET_DEF	4	4
RESOLUTION	384
CLK_DEF	384
COMPATIBLE_CODE	MA2

BPM	0	0	210.000
MET	0	0	4	4

TAP	2	0	0
TAP	2	96	1
TAP	2	192	2
HLD	2	192	3	240
TAP	3	48	4
TAP	3	96	4
TAP	3	192	3
TAP	3	192	5
TAP	4	0	7
TAP	4	96	6
HLD	4	192	4	240
TAP	4	192	5
TAP	5	48	3
TAP	5	96	3
TAP	5	192	2
TAP	5	192	4
TAP	6	0	0
TAP	6	96	2
TAP	6	192	1
HLD	6	192	3	240
TAP	7	48	5
TAP	7	96	5
TAP	7	192	4
TAP	7	192	6
TAP	8	0	7
TAP	8	96	5
HLD	8	192	4	240
TAP	8	192	6
TAP	9	48	2
TAP	9	96	2
TAP	9	192	1
TAP	9	192	3
STR	10	0	0
SI_	10	0	0	96	96	4
STR	10	192	6
SI_	10	192	6	96	96	3
STR	11	0	7
SXL	11	0	7	96	192	2
STR	12	0	7
SI_	12	0	7	96	96	3
STR	12	192	1
SI_	12	192	1	96	96	4
STR	13	0	0
SXR	13	0	0	96	192	5
STR	14	0	0
SI_	14	0	0	96	96	4
STR	14	192	6
SI_	14	192	6	96	96	3
STR	15	0	7
SXL	15	0	7	96	192	2
STR	16	0	3
SI_	16	0	3	96	96	7
STR	16	192	4
SI_	16	192	4	96	96	0
STR	17	0	2
SXL	17	0	2	96	192	5
TAP	18	0	1
TAP	18	96	0
TAP	18	96	2
TAP	18	192	2
TAP	18	240	3
TAP	18	288	1
TAP	19	0	5
TAP	19	48	4
TAP	19	96	6
TAP	19	192	2
TAP	19	240	3
TAP	19	288	0
TAP	19	288	4
TAP	20	0	6
TAP	20	96	5
TAP	20	96	7
TAP	20	192	5
TAP	20	240	4
TAP	20	288	6
TAP	21	0	1
TAP	21	48	1
TAP	21	96	3
TAP	21	144	3
STR	21	192	7
SI_	21	192	7	96	48	3
TAP	21	288	7
TAP	22	0	6
TAP	22	96	5
TAP	22	96	7
TAP	22	192	5
TAP	22	240	4
TAP	22	288	6
TAP	23	0	2
TAP	23	48	3
TAP	23	96	1
TAP	23	192	5
TAP	23	240	4
TAP	23	288	3
TAP	23	288	7
TAP	24	0	1
TAP	24	96	0
TAP	24	96	2
TAP	24	192	2
TAP	24	240	3
TAP	24	288	1
TAP	25	0	6
TAP	25	48	6
TAP	25	96	4
TAP	25	144	4
STR	25	192	0
SI_	25	192	0	96	48	4
TAP	25	288	0
TAP	26	0	3
TAP	26	0	6
TAP	26	96	0
TAP	26	96	1
TAP	26	192	7
TAP	26	240	0
TAP	26	288	5
STR	27	0	6
SI_	27	0	6	96	48	2
STR	27	48	7
SI_	27	48	7	96	48	3
TAP	27	96	6
TAP	27	144	7
TAP	27	288	0
TAP	27	288	5
TAP	28	0	1
TAP	28	0	4
TAP	28	96	6
TAP	28	96	7
TAP	28	192	0
TAP	28	240	7
TAP	28	288	2
STR	29	0	1
SI_	29	0	1	96	48	5
STR	29	48	0
SI_	29	48	0	96	48	4
TAP	29	96	1
TAP	29	144	0
TAP	29	288	0
TAP	29	288	5
TAP	30	0	3
TAP	30	0	6
TAP	30	96	0
TAP	30	96	1
TAP	30	192	7
TAP	30	240	0
TAP	30	288	5
STR	31	0	6
SI_	31	0	6	96	48	2
STR	31	48	7
SI_	31	48	7	96	48	3
TAP	31	96	6
TAP	31	144	7
TAP	31	288	0
TAP	31	288	5
STR	32	0	1
SI_	32	0	1	96	48	4
STR	32	0	5
SI_	32	0	5	96	48	0
TAP	32	96	1
TAP	32	96	5
TAP	32	192	3
TAP	32	192	7
TAP	32	240	2
TAP	32	240	6
TAP	32	288	1
TAP	32	288	5
STR	33	0	1
SV_	33	0	1	96	48	3
STR	33	48	5
SV_	33	48	5	96	48	7
TAP	33	96	1
TAP	33	144	5
HLD	34	0	2	192
TAP	34	144	3
TAP	34	192	3
TAP	34	288	1
TAP	34	288	4
TAP	35	0	5
TAP	35	48	4
TAP	35	96	5
TAP	35	192	3
TAP	35	192	6
HLD	36	0	5	192
TAP	36	144	4
TAP	36	192	4
TAP	36	288	3
TAP	36	288	6
TAP	37	0	2
TAP	37	48	3
TAP	37	96	2
TAP	37	192	1
TAP	37	192	4
HLD	38	0	1	192
TAP	38	144	3
TAP	38	192	3
TAP	38	288	0
TAP	38	288	5
TAP	39	0	6
TAP	39	48	4
TAP	39	96	6
TAP	39	192	3
TAP	39	192	7
HLD	40	0	6	192
TAP	40	144	4
TAP	40	192	4
TAP	40	288	2
TAP	40	288	7
TAP	41	0	1
TAP	41	48	3
TAP	41	96	1
TAP	41	192	0
TAP	41	192	4
STR	41	336	1
SI_	41	336	1	96	48	5
TAP	42	0	1
STR	42	96	7
SI_	42	96	7	96	48	3
TAP	42	144	7
STR	42	240	2
SI_	42	240	2	96	48	7
TAP	42	288	2
STR	43	0	4
SI_	43	0	4	96	48	0
TAP	43	48	4
TAP	43	144	7
TAP	43	192	7
BRK	43	288	1
BRK	43	288	6
STR	44	0	0
SI_	44	0	0	96	48	5
STR	44	0	1
SI_	44	0	1	96	48	4
TAP	44	96	0
TAP	44	96	1
TAP	44	192	6
TAP	44	240	7
TAP	44	288	4
TAP	44	336	3
TAP	45	0	0
TAP	45	48	1
TAP	45	96	0
STR	45	144	1
SCR	45	144	1	96	48	4
TAP	45	288	0
TAP	46	0	5
TAP	46	48	4
TAP	46	96	6
TAP	46	144	6
TAP	46	192	2
TAP	46	240	3
TAP	46	288	1
TAP	46	288	4
TAP	46	336	0
TAP	47	0	7
STR	47	48	2
SCR	47	48	2	96	48	5
TAP	47	96	6
TAP	47	144	2
BRK	47	288	0
BRK	47	288	4
STR	48	0	6
SI_	48	0	6	96	48	3
STR	48	0	7
SI_	48	0	7	96	48	2
TAP	48	96	6
TAP	48	96	7
TAP	48	192	1
TAP	48	240	0
TAP	48	288	3
TAP	48	336	4
TAP	49	0	7
TAP	49	48	6
TAP	49	96	7
STR	49	144	6
SCL	49	144	6	96	48	3
TAP	49	288	7
TAP	50	0	2
TAP	50	48	3
TAP	50	96	1
TAP	50	144	1
TAP	50	192	5
TAP	50	240	4
TAP	50	288	3
TAP	50	288	6
TAP	50	336	7
TAP	51	0	0
STR	51	48	5
SCL	51	48	5	96	48	2
TAP	51	96	1
TAP	51	144	5
BRK	51	288	3
BRK	51	288	7
STR	52	0	0
SI_	52	0	0	96	48	4
STR	52	96	7
SI_	52	96	7	96	48	3
STR	52	192	1
SCR	52	192	1	96	48	4
TAP	52	288	6
STR	53	0	0
SI_	53	0	0	96	48	5
STR	53	0	1
SI_	53	0	1	96	48	4
TAP	53	96	0
TAP	53	96	1
STR	53	192	6
SI_	53	192	6	96	48	3
STR	53	192	7
SI_	53	192	7	96	48	2
TAP	53	288	6
TAP	53	288	7
TAP	54	0	1
TAP	54	48	0
TAP	54	96	3
TAP	54	144	4
TAP	54	192	7
TAP	54	240	6
TAP	54	288	0
TAP	54	288	5
STR	55	0	6
SCL	55	0	6	96	48	3
STR	55	0	7
SCR	55	0	7	96	48	2
TAP	55	96	6
TAP	55	96	7
TAP	55	288	1
TAP	55	288	6
STR	56	0	7
SI_	56	0	7	96	48	3
STR	56	96	0
SI_	56	96	0	96	48	4
STR	56	192	6
SCL	56	192	6	96	48	3
TAP	56	288	1
STR	57	0	6
SI_	57	0	6	96	48	3
STR	57	0	7
SI_	57	0	7	96	48	2
TAP	57	96	6
TAP	57	96	7
STR	57	192	0
SI_	57	192	0	96	48	5
STR	57	192	1
SI_	57	192	1	96	48	4
TAP	57	288	0
TAP	57	288	1
TAP	58	0	6
TAP	58	48	7
TAP	58	96	4
TAP	58	144	3
TAP	58	192	0
TAP	58	240	1
TAP	58	288	2
TAP	58	288	7
STR	59	0	0
SCL	59	0	0	96	48	5
STR	59	0	1
SCR	59	0	1	96	48	4
TAP	59	96	0
TAP	59	96	1
BRK	59	288	1
BRK	59	288	6
HLD	60	0	2	96
TAP	60	96	3
HLD	60	144	3	96
TAP	60	240	4
HLD	60	288	4	96
TAP	61	0	5
HLD	61	48	5	96
TAP	61	144	6
STR	61	192	6
SI_	61	192	6	96	48	3
TAP	61	288	6
HLD	62	0	5	96
TAP	62	96	4
HLD	62	144	4	96
TAP	62	240	3
HLD	62	288	3	96
TAP	63	0	2
HLD	63	48	2	96
TAP	63	144	1
STR	63	192	1
SI_	63	192	1	96	48	4
TAP	63	288	1
HLD	64	0	7	96
TAP	64	96	0
HLD	64	144	0	96
TAP	64	240	1
HLD	64	288	1	96
TAP	65	0	2
HLD	65	48	2	96
TAP	65	144	3
STR	65	192	3
SI_	65	192	3	96	48	7
TAP	65	288	3
HLD	66	0	0	96
TAP	66	96	7
HLD	66	144	7	96
TAP	66	240	6
HLD	66	288	6	96
TAP	67	0	5
HLD	67	48	5	96
TAP	67	144	4
STR	67	192	4
SI_	67	192	4	96	48	0
TAP	67	288	4
STR	68	0	2
SUL	68	0	2	96	192	6
STR	68	192	6
SUL	68	192	6	96	192	2
STR	69	0	2
SCL	69	0	2	96	192	7
STR	69	192	7
SUL	69	192	7	96	192	3
STR	70	0	3
SCR	70	0	3	96	192	7
SUL	70	0	3	96	192	7
TAP	71	0	0
TAP	71	96	7
TAP	71	192	1
TAP	71	192	6
STR	72	0	5
SUR	72	0	5	96	192	1
STR	72	192	1
SUR	72	192	1	96	192	5
STR	73	0	5
SCR	73	0	5	96	192	0
STR	73	192	0
SUR	73	192	0	96	192	4
STR	74	0	4
SCL	74	0	4	96	192	0
SUR	74	0	4	96	192	0
TAP	75	0	7
TAP	75	96	0
TAP	75	192	1
TAP	75	192	6
STR	76	0	1
SUL	76	0	1	96	192	3
STR	76	192	3
SUL	76	192	3	96	192	5
STR	77	0	5
SUL	77	0	5	96	192	7
STR	77	192	7
SCL	77	192	7	96	192	3
STR	78	0	3
SCL	78	0	3	96	192	7
SCR	78	0	3	96	192	7
TAP	79	0	0
TAP	79	48	7
TAP	79	96	0
TAP	79	192	1
TAP	79	192	6
STR	80	0	6
SUR	80	0	6	96	192	4
STR	80	192	4
SUR	80	192	4	96	192	2
STR	81	0	2
SUR	81	0	2	96	192	0
STR	81	192	0
SCR	81	192	0	96	192	4
STR	82	0	4
SCL	82	0	4	96	192	0
SCR	82	0	4	96	192	0
TAP	83	0	7
TAP	83	48	0
TAP	83	96	7
BRK	83	192	1
BRK	83	192	6
STR	84	0	1
SI_	84	0	1	96	48	4
STR	84	0	3
SI_	84	0	3	96	48	6
TAP	84	96	1
TAP	84	96	3
TAP	84	192	2
TAP	84	240	4
TAP	84	288	3
TAP	84	336	6
STR	85	0	2
SI_	85	0	2	96	48	6
STR	85	48	5
SI_	85	48	5	96	48	1
TAP	85	96	2
TAP	85	144	5
TAP	85	288	0
TAP	85	288	7
STR	86	0	1
SI_	86	0	1	96	48	4
STR	86	48	5
SI_	86	48	5	96	48	0
TAP	86	96	1
TAP	86	144	5
STR	86	192	4
SCL	86	192	4	96	48	2
TAP	86	240	0
TAP	86	288	4
STR	87	0	0
SI_	87	0	0	96	48	5
STR	87	0	1
SI_	87	0	1	96	48	4
TAP	87	96	0
TAP	87	96	1
TAP	87	192	6
TAP	87	192	7
BRK	87	288	1
BRK	87	288	4
STR	88	0	4
SI_	88	0	4	96	48	1
STR	88	0	6
SI_	88	0	6	96	48	3
TAP	88	96	4
TAP	88	96	6
TAP	88	192	5
TAP	88	240	3
TAP	88	288	4
TAP	88	336	1
STR	89	0	5
SI_	89	0	5	96	48	1
STR	89	48	2
SI_	89	48	2	96	48	6
TAP	89	96	5
TAP	89	144	2
TAP	89	288	0
TAP	89	288	7
STR	90	0	6
SI_	90	0	6	96	48	3
STR	90	48	2
SI_	90	48	2	96	48	7
TAP	90	96	6
TAP	90	144	2
STR	90	192	3
SCR	90	192	3	96	48	5
TAP	90	240	7
TAP	90	288	3
STR	91	0	6
SI_	91	0	6	96	48	3
STR	91	0	7
SI_	91	0	7	96	48	2
TAP	91	96	6
TAP	91	96	7
TAP	91	192	0
TAP	91	192	1
BRK	91	288	3
BRK	91	288	6
STR	92	0	3
SI_	92	0	3	96	48	7
STR	92	96	4
SI_	92	96	4	96	48	0
STR	92	192	2
SCL	92	192	2	96	48	7
TAP	92	288	5
STR	93	0	2
SI_	93	0	2	96	48	7
STR	93	0	3
SI_	93	0	3	96	48	6
TAP	93	96	2
TAP	93	96	3
STR	93	192	4
SI_	93	192	4	96	48	1
STR	93	192	5
SI_	93	192	5	96	48	0
TAP	93	288	4
TAP	93	288	5
TAP	94	0	2
TAP	94	48	3
TAP	94	96	0
TAP	94	144	7
TAP	94	192	4
TAP	94	240	5
TAP	94	288	3
TAP	94	288	6
STR	95	0	0
SCL	95	0	0	96	96	3
STR	95	0	1
SUL	95	0	1	96	96	2
TAP	95	288	2
TAP	95	288	5
STR	96	0	4
SI_	96	0	4	96	48	0
STR	96	96	3
SI_	96	96	3	96	48	7
STR	96	192	5
SCR	96	192	5	96	48	0
TAP	96	288	2
STR	97	0	4
SI_	97	0	4	96	48	1
STR	97	0	5
SI_	97	0	5	96	48	0
TAP	97	96	4
TAP	97	96	5
STR	97	192	2
SI_	97	192	2	96	48	7
STR	97	192	3
SI_	97	192	3	96	48	6
TAP	97	288	2
TAP	97	288	3
TAP	98	0	5
TAP	98	48	4
TAP	98	96	7
TAP	98	144	0
TAP	98	192	3
TAP	98	240	2
TAP	98	288	1
TAP	98	288	4
STR	99	0	6
SUR	99	0	6	96	96	5
STR	99	0	7
SCR	99	0	7	96	96	4
TAP	99	288	2
TAP	99	288	5
STR	100	0	5
SI_	100	0	5	96	48	1
STR	100	96	4
SI_	100	96	4	96	48	0
STR	100	192	6
SCR	100	192	6	96	48	1
TAP	100	288	3
STR	101	0	4
SCL	101	0	4	96	48	1
STR	101	0	5
SCR	101	0	5	96	48	0
TAP	101	96	4
TAP	101	96	5
STR	101	192	2
SCL	101	192	2	96	48	7
STR	101	192	3
SCR	101	192	3	96	48	6
TAP	101	288	2
TAP	101	288	3
TAP	102	0	5
TAP	102	48	4
TAP	102	96	7
TAP	102	144	0
TAP	102	192	3
TAP	102	240	2
TAP	102	288	1
TAP	102	288	4
STR	103	0	2
SUR	103	0	2	96	96	1
STR	103	0	3
SCR	103	0	3	96	96	0
TAP	103	288	3
TAP	103	288	4
STR	104	0	2
SI_	104	0	2	96	48	6
STR	104	96	3
SI_	104	96	3	96	48	7
STR	104	192	1
SCL	104	192	1	96	48	6
TAP	104	288	4
STR	105	0	2
SCL	105	0	2	96	48	7
STR	105	0	3
SCR	105	0	3	96	48	6
TAP	105	96	2
TAP	105	96	3
STR	105	192	4
SCL	105	192	4	96	48	1
STR	105	192	5
SCR	105	192	5	96	48	0
TAP	105	288	4
TAP	105	288	5
TAP	106	0	2
TAP	106	48	3
TAP	106	96	0
TAP	106	144	7
TAP	106	192	4
TAP	106	240	5
TAP	106	288	3
TAP	106	288	6
STR	107	0	4
SCL	107	0	4	96	96	7
STR	107	0	5
SUL	107	0	5	96	96	6
HLD	108	0	0	96
HLD	108	0	1	96
HLD	108	144	2	432
HLD	108	144	7	432
HLD	110	0	6	96
HLD	110	0	7	96
HLD	110	144	0	432
HLD	110	144	5	432
HLD	112	0	2	96
HLD	112	0	3	96
HLD	112	144	1	432
HLD	112	144	4	432
STR	114	0	7
SSR	114	0	7	96	480	3
STR	115	192	0
SI_	115	192	0	96	24	4

T_REC_TAP	367
T_REC_BRK	14
T_REC_XTP	0
T_REC_HLD	36
T_REC_XHO	0
T_REC_STR	134
T_REC_BST	0
T_REC_XST	0
T_REC_TTP	0
T_REC_THO	0
T_REC_SLD	138
T_REC_ALL	689
T_NUM_TAP	501
T_NUM_BRK	14
T_NUM_HLD	36
T_NUM_SLD	138
T_NUM_ALL	689
T_JUDGE_TAP	515
T_JUDGE_HLD	134
T_JUDGE_SLD	138
T_JUDGE_ALL	787
TTM_EACHPAIRS	112
TTM_SCR_TAP	250500
TTM_SCR_BRK	36400
TTM_SCR_HLD	36000
TTM_SCR_SLD	207000
TTM_SCR_ALL	529900
TTM_SCR_S	512650
TTM_SCR_SS	528500
TTM_RAT_ACV	10026

