VERSION	0.00.00	1.03.00
FES_MODE	0
BPM_DEF	210.000	210.000	210.000	210.000
MET_DEF	4	4
RESOLUTION	384
CLK_DEF	384
COMPATIBLE_CODE	MA2

BPM	0	0	210.000
MET	0	0	4	4

TAP	2	0	7
TAP	2	192	1
TAP	2	192	3
TAP	3	0	0
TAP	3	192	4
TAP	3	192	6
TAP	4	0	4
TAP	4	192	0
TAP	4	192	2
TAP	5	0	3
TAP	5	192	5
TAP	5	192	7
STR	6	0	1
SI_	6	0	1	96	96	3
TAP	6	192	5
STR	7	0	6
SI_	7	0	6	96	96	4
TAP	7	192	2
STR	8	0	2
SI_	8	0	2	96	96	4
TAP	8	192	6
STR	9	0	5
SI_	9	0	5	96	96	3
TAP	9	192	1
HLD	10	0	2	96
TAP	10	96	3
TAP	10	192	1
TAP	10	192	4
HLD	11	0	5	96
TAP	11	96	4
TAP	11	192	3
TAP	11	192	6
HLD	12	0	1	96
TAP	12	96	0
TAP	12	192	2
TAP	12	192	7
HLD	13	0	6	96
TAP	13	96	7
TAP	13	192	0
TAP	13	192	5
HLD	14	0	2	96
TAP	14	96	3
TAP	14	192	0
TAP	14	192	5
HLD	15	0	5	96
TAP	15	96	4
TAP	15	192	2
TAP	15	192	7
HLD	16	0	1	96
TAP	16	96	0
TAP	16	192	3
TAP	16	192	6
HLD	17	0	6	96
TAP	17	96	7
TAP	17	192	1
TAP	17	192	4
TAP	18	0	0
STR	18	0	1
SCR	18	0	1	96	192	4
TAP	19	0	5
TAP	19	0	7
TAP	19	96	6
TAP	19	192	5
TAP	19	192	7
STR	20	0	6
SCL	20	0	6	96	192	3
TAP	20	0	7
TAP	21	0	0
TAP	21	0	2
TAP	21	96	1
TAP	21	192	0
TAP	21	192	2
STR	22	0	4
SCL	22	0	4	96	192	1
TAP	22	0	5
TAP	23	0	0
TAP	23	0	6
TAP	23	96	7
TAP	23	192	0
TAP	23	192	6
TAP	24	0	2
STR	24	0	3
SCR	24	0	3	96	192	6
TAP	25	0	1
TAP	25	0	7
TAP	25	96	0
TAP	25	192	1
TAP	25	192	7
TAP	26	0	2
TAP	26	96	3
TAP	26	144	3
TAP	26	288	4
TAP	26	288	6
TAP	27	0	5
TAP	27	96	4
TAP	27	144	4
TAP	27	288	1
TAP	27	288	3
TAP	28	0	1
TAP	28	96	0
TAP	28	144	0
TAP	28	288	5
TAP	28	288	7
TAP	29	0	6
TAP	29	96	7
TAP	29	144	7
TAP	29	288	0
TAP	29	288	2
HLD	30	0	5	96
TAP	30	96	4
TAP	30	144	4
TAP	30	288	1
TAP	30	288	3
HLD	31	0	2	96
TAP	31	96	3
TAP	31	144	3
TAP	31	288	4
TAP	31	288	6
HLD	32	0	6	96
TAP	32	96	7
TAP	32	144	7
TAP	32	288	0
TAP	32	288	2
HLD	33	0	1	96
TAP	33	96	0
TAP	33	144	0
TAP	33	288	5
TAP	33	288	7
HLD	34	0	0	480
TAP	34	0	6
TAP	34	192	5
TAP	34	288	5
TAP	35	0	6
TAP	35	96	6
TAP	35	192	3
TAP	35	192	5
TAP	35	288	2
TAP	35	288	4
TAP	36	0	1
HLD	36	0	7	480
TAP	36	192	2
TAP	36	288	2
TAP	37	0	1
TAP	37	96	1
TAP	37	192	2
TAP	37	192	4
TAP	37	288	3
TAP	37	288	5
HLD	38	0	0	384
TAP	38	0	6
TAP	38	192	5
TAP	38	288	5
TAP	39	0	6
HLD	39	96	7	96
HLD	39	192	0	96
HLD	39	288	7	768
TAP	40	0	1
TAP	40	192	1
TAP	40	288	1
TAP	41	0	2
TAP	41	96	2
TAP	41	192	3
TAP	41	288	3
TAP	42	0	0
TAP	42	0	7
TAP	42	144	5
TAP	42	144	6
TAP	42	288	3
TAP	42	288	4
TAP	43	48	1
TAP	43	48	2
BRK	43	192	0
BRK	43	192	7
TAP	44	0	1
TAP	44	0	7
TAP	44	96	0
TAP	44	96	6
TAP	44	192	4
TAP	44	288	3
TAP	44	288	5
TAP	45	0	0
TAP	45	0	2
TAP	45	96	1
TAP	45	96	7
TAP	45	144	1
TAP	45	144	7
TAP	45	288	0
TAP	45	288	4
TAP	46	0	3
TAP	46	0	5
TAP	46	96	2
TAP	46	96	4
TAP	46	192	4
TAP	46	192	6
TAP	46	288	1
TAP	46	288	3
TAP	47	0	5
TAP	47	96	1
TAP	47	96	7
TAP	47	144	1
TAP	47	144	7
TAP	47	288	2
TAP	47	288	4
TAP	48	0	0
TAP	48	0	6
TAP	48	96	1
TAP	48	96	7
TAP	48	192	3
TAP	48	288	2
TAP	48	288	4
TAP	49	0	5
TAP	49	0	7
TAP	49	96	0
TAP	49	96	6
TAP	49	144	0
TAP	49	144	6
TAP	49	288	3
TAP	49	288	7
TAP	50	0	2
TAP	50	0	4
TAP	50	96	3
TAP	50	96	5
TAP	50	192	1
TAP	50	192	3
TAP	50	288	4
TAP	50	288	6
TAP	51	0	2
TAP	51	96	0
TAP	51	96	6
TAP	51	144	0
TAP	51	144	6
BRK	51	288	3
BRK	51	288	5
HLD	52	0	2	96
HLD	52	96	3	96
HLD	52	192	4	96
HLD	52	288	5	96
HLD	53	0	4	96
HLD	53	96	3	96
TAP	53	192	2
TAP	53	288	2
TAP	53	288	4
HLD	54	0	4	528
TAP	54	96	6
TAP	54	192	6
TAP	54	288	0
TAP	55	0	0
TAP	55	96	2
TAP	55	144	2
BRK	55	288	0
BRK	55	288	6
HLD	56	0	5	96
HLD	56	96	4	96
HLD	56	192	3	96
HLD	56	288	2	96
HLD	57	0	3	96
HLD	57	96	4	96
TAP	57	192	5
TAP	57	288	3
TAP	57	288	5
HLD	58	0	3	528
TAP	58	96	1
TAP	58	192	1
TAP	58	288	7
TAP	59	0	7
TAP	59	96	5
TAP	59	144	5
BRK	59	288	1
BRK	59	288	7
HLD	60	0	5	144
HLD	60	144	4	144
TAP	60	288	3
TAP	61	96	2
TAP	61	96	4
TAP	61	192	1
TAP	61	192	3
TAP	61	288	0
TAP	61	288	2
HLD	62	0	2	144
HLD	62	144	3	144
TAP	62	288	4
TAP	63	96	3
TAP	63	96	5
TAP	63	192	4
TAP	63	192	6
TAP	63	288	5
TAP	63	288	7
HLD	64	0	5	144
HLD	64	144	4	144
TAP	64	288	3
TAP	65	0	3
TAP	65	96	2
TAP	65	96	4
TAP	65	192	1
TAP	65	192	3
TAP	65	288	0
TAP	65	288	2
HLD	66	0	2	144
HLD	66	144	3	144
TAP	66	288	4
TAP	67	0	4
TAP	67	96	3
TAP	67	96	5
TAP	67	192	4
TAP	67	192	6
BRK	67	288	5
BRK	67	288	7
TAP	68	0	2
TAP	68	96	2
TAP	68	192	3
TAP	68	288	3
TAP	69	0	4
TAP	69	96	5
TAP	69	144	5
TAP	70	0	5
TAP	70	96	5
TAP	70	192	4
TAP	70	288	4
TAP	71	0	3
TAP	71	96	2
TAP	71	144	2
TAP	72	0	3
TAP	72	96	3
TAP	72	192	4
TAP	72	288	4
TAP	73	0	5
TAP	73	96	6
TAP	73	144	6
TAP	74	0	4
TAP	74	96	4
TAP	74	192	3
TAP	74	288	3
HLD	75	0	2	96
TAP	75	192	1
TAP	75	192	3
TAP	76	0	2
TAP	76	96	2
TAP	76	192	4
TAP	76	240	3
TAP	76	288	4
TAP	77	0	5
TAP	77	96	6
TAP	77	144	6
TAP	78	0	5
TAP	78	96	5
TAP	78	192	3
TAP	78	240	4
TAP	78	288	3
TAP	79	0	2
TAP	79	96	1
TAP	79	144	1
TAP	80	0	1
TAP	80	96	1
TAP	80	192	7
TAP	80	240	0
TAP	80	288	7
TAP	81	0	6
TAP	81	96	5
TAP	81	144	5
TAP	82	0	6
TAP	82	96	6
TAP	82	192	0
TAP	82	240	7
TAP	82	288	0
HLD	83	0	1	192
BRK	83	192	7
TAP	84	0	1
TAP	84	0	7
TAP	84	96	0
TAP	84	96	6
TAP	84	192	4
TAP	84	240	4
TAP	84	288	3
TAP	85	0	0
TAP	85	0	2
TAP	85	96	1
TAP	85	96	7
TAP	85	144	1
TAP	85	144	7
TAP	85	288	0
TAP	85	288	4
TAP	86	0	3
TAP	86	0	5
TAP	86	96	2
TAP	86	96	4
TAP	86	192	4
TAP	86	192	6
TAP	86	288	1
TAP	86	288	3
TAP	87	0	5
TAP	87	96	1
TAP	87	96	7
TAP	87	144	1
TAP	87	144	7
BRK	87	288	2
BRK	87	288	4
TAP	88	0	0
TAP	88	0	6
TAP	88	96	1
TAP	88	96	7
TAP	88	192	3
TAP	88	240	3
TAP	88	288	4
TAP	89	0	5
TAP	89	0	7
TAP	89	96	0
TAP	89	96	6
TAP	89	144	0
TAP	89	144	6
TAP	89	288	3
TAP	89	288	7
TAP	90	0	2
TAP	90	0	4
TAP	90	96	3
TAP	90	96	5
TAP	90	192	1
TAP	90	192	3
TAP	90	288	4
TAP	90	288	6
TAP	91	0	2
TAP	91	96	0
TAP	91	96	6
TAP	91	144	0
TAP	91	144	6
BRK	91	288	3
BRK	91	288	5
HLD	92	0	6	96
HLD	92	96	4	96
HLD	92	192	3	96
HLD	92	288	1	96
HLD	93	0	3	96
HLD	93	96	4	96
TAP	93	192	5
TAP	93	288	3
TAP	93	288	5
HLD	94	0	3	528
TAP	94	96	1
TAP	94	144	1
TAP	94	192	1
TAP	94	288	7
TAP	94	336	7
TAP	95	0	7
TAP	95	96	5
TAP	95	144	5
BRK	95	288	1
BRK	95	288	7
HLD	96	0	1	96
HLD	96	96	3	96
HLD	96	192	4	96
HLD	96	288	6	96
HLD	97	0	4	96
HLD	97	96	3	96
TAP	97	192	2
TAP	97	288	2
TAP	97	288	4
HLD	98	0	4	528
TAP	98	96	6
TAP	98	144	6
TAP	98	192	6
TAP	98	288	0
TAP	98	336	0
TAP	99	0	0
TAP	99	96	2
TAP	99	144	2
BRK	99	288	0
BRK	99	288	6
HLD	100	0	6	96
HLD	100	96	7	96
HLD	100	192	0	96
HLD	100	288	1	96
HLD	101	0	0	96
HLD	101	96	7	96
TAP	101	192	6
TAP	101	288	0
TAP	101	288	6
HLD	102	0	0	528
TAP	102	96	2
TAP	102	144	2
TAP	102	192	2
TAP	102	288	4
TAP	102	336	4
TAP	103	0	4
TAP	103	96	6
TAP	103	144	6
BRK	103	288	2
BRK	103	288	4
HLD	104	0	1	96
HLD	104	96	0	96
HLD	104	192	7	96
HLD	104	288	6	96
HLD	105	0	7	96
HLD	105	96	0	96
TAP	105	192	1
TAP	105	288	1
TAP	105	288	7
HLD	106	0	7	528
TAP	106	96	5
TAP	106	144	5
TAP	106	192	5
TAP	106	288	3
TAP	106	336	3
TAP	107	0	3
TAP	107	96	1
TAP	107	144	1
TAP	108	0	1
STR	108	96	1
SCR	108	96	1	96	96	3
TAP	109	0	5
TAP	109	96	4
TAP	109	192	4
TAP	109	192	5
TAP	110	0	6
STR	110	96	6
SCL	110	96	6	96	96	4
TAP	111	0	2
TAP	111	96	3
TAP	111	192	2
TAP	111	192	3
TAP	112	0	2
STR	112	96	2
SCR	112	96	2	96	96	4
TAP	113	0	5
TAP	113	96	4
TAP	113	192	4
TAP	113	192	5
TAP	114	0	5
STR	114	96	5
SCL	114	96	5	96	96	3
TAP	115	0	2
TAP	115	96	3
TAP	115	144	3

T_REC_TAP	416
T_REC_BRK	21
T_REC_XTP	0
T_REC_HLD	70
T_REC_XHO	0
T_REC_STR	12
T_REC_BST	0
T_REC_XST	0
T_REC_TTP	0
T_REC_THO	0
T_REC_SLD	12
T_REC_ALL	531
T_NUM_TAP	428
T_NUM_BRK	21
T_NUM_HLD	70
T_NUM_SLD	12
T_NUM_ALL	531
T_JUDGE_TAP	449
T_JUDGE_HLD	240
T_JUDGE_SLD	12
T_JUDGE_ALL	701
TTM_EACHPAIRS	125
TTM_SCR_TAP	214000
TTM_SCR_BRK	54600
TTM_SCR_HLD	70000
TTM_SCR_SLD	18000
TTM_SCR_ALL	356600
TTM_SCR_S	343900
TTM_SCR_SS	354500
TTM_RAT_ACV	10059

