VERSION	0.00.00	1.03.00
FES_MODE	0
BPM_DEF	210.000	210.000	210.000	210.000
MET_DEF	4	4
RESOLUTION	384
CLK_DEF	384
COMPATIBLE_CODE	MA2

BPM	0	0	210.000
MET	0	0	4	4

HLD	2	0	2	192
HLD	2	192	3	192
HLD	3	0	4	192
TAP	3	192	5
HLD	4	0	5	192
HLD	4	192	4	192
HLD	5	0	3	192
TAP	5	192	2
HLD	6	0	1	192
HLD	6	192	2	192
HLD	7	0	3	192
TAP	7	192	4
HLD	8	0	5	192
HLD	8	192	4	192
HLD	9	0	3	192
TAP	9	192	2
TAP	10	0	0
TAP	10	96	0
TAP	10	192	1
TAP	10	288	1
TAP	11	0	2
TAP	11	96	2
TAP	11	192	2
TAP	11	192	3
TAP	12	0	7
TAP	12	96	7
TAP	12	192	6
TAP	12	288	6
TAP	13	0	5
TAP	13	96	5
TAP	13	192	4
TAP	13	192	5
TAP	14	0	1
TAP	14	96	1
TAP	14	192	2
TAP	14	288	2
TAP	15	0	3
TAP	15	96	3
TAP	15	192	4
TAP	15	192	5
TAP	16	0	6
TAP	16	96	6
TAP	16	192	5
TAP	16	288	5
TAP	17	0	4
TAP	17	96	4
TAP	17	192	2
TAP	17	192	3
TAP	18	0	3
TAP	18	96	3
TAP	18	192	2
TAP	18	288	2
TAP	19	0	3
TAP	19	96	2
TAP	19	192	1
TAP	19	192	4
TAP	20	0	4
TAP	20	96	4
TAP	20	192	5
TAP	20	288	5
TAP	21	0	4
TAP	21	96	5
TAP	21	192	3
TAP	21	192	6
TAP	22	0	7
TAP	22	96	7
TAP	22	192	0
TAP	22	288	0
TAP	23	0	7
TAP	23	96	0
TAP	23	192	1
TAP	23	192	6
STR	24	0	6
SI_	24	0	6	96	96	3
STR	24	0	7
SI_	24	0	7	96	96	2
STR	25	0	0
SI_	25	0	0	96	96	5
STR	25	0	1
SI_	25	0	1	96	96	4
TAP	26	0	0
TAP	26	96	0
TAP	26	192	1
TAP	26	288	1
TAP	27	0	0
TAP	27	96	1
TAP	27	192	2
TAP	27	192	7
TAP	28	0	7
TAP	28	96	7
TAP	28	192	6
TAP	28	288	6
TAP	29	0	7
TAP	29	96	6
TAP	29	192	0
TAP	29	192	5
TAP	30	0	4
TAP	30	96	4
TAP	30	192	3
TAP	30	288	3
TAP	31	0	4
TAP	31	96	3
TAP	31	192	2
TAP	31	192	5
STR	32	0	4
SI_	32	0	4	96	96	1
STR	32	0	5
SI_	32	0	5	96	96	0
STR	33	0	2
SI_	33	0	2	96	96	7
STR	33	0	3
SI_	33	0	3	96	96	6
HLD	34	0	2	192
TAP	34	192	3
HLD	35	0	5	192
TAP	35	192	4
HLD	36	0	1	192
TAP	36	192	2
HLD	37	0	6	192
TAP	37	192	5
HLD	38	0	1	192
TAP	38	192	0
HLD	39	0	6	192
TAP	39	192	7
HLD	40	0	0	192
TAP	40	192	7
TAP	41	0	7
TAP	41	96	0
TAP	41	192	1
TAP	41	192	6
STR	42	0	0
SXL	42	0	0	96	480	3
STR	42	0	7
SXR	42	0	7	96	480	4
BRK	44	0	4
BRK	44	96	4
TAP	44	192	5
TAP	44	288	6
TAP	45	0	7
TAP	45	96	0
TAP	45	192	1
TAP	45	192	7
TAP	46	0	7
TAP	46	96	6
TAP	46	192	5
TAP	46	288	4
TAP	47	0	2
TAP	47	0	3
TAP	47	96	2
TAP	47	96	3
TAP	47	192	1
TAP	47	192	4
BRK	48	0	3
BRK	48	96	3
TAP	48	192	2
TAP	48	288	1
TAP	49	0	0
TAP	49	96	7
TAP	49	192	0
TAP	49	192	6
TAP	50	0	0
TAP	50	96	1
TAP	50	192	2
TAP	50	288	3
TAP	51	0	4
TAP	51	0	5
TAP	51	96	4
TAP	51	96	5
TAP	51	192	3
TAP	51	192	6
TAP	52	0	0
TAP	52	96	1
TAP	52	192	2
TAP	52	288	3
TAP	53	0	4
TAP	53	96	5
TAP	53	192	6
TAP	53	192	7
TAP	53	288	6
TAP	53	288	7
STR	54	0	6
SI_	54	0	6	96	96	3
STR	54	0	7
SI_	54	0	7	96	96	2
STR	55	0	0
SI_	55	0	0	96	96	5
STR	55	0	1
SI_	55	0	1	96	96	4
TAP	56	0	7
TAP	56	96	6
TAP	56	192	5
TAP	56	288	4
TAP	57	0	3
TAP	57	96	2
TAP	57	192	0
TAP	57	192	1
TAP	57	288	0
TAP	57	288	1
STR	58	0	0
SI_	58	0	0	96	96	5
STR	58	0	1
SI_	58	0	1	96	96	4
STR	59	0	6
SI_	59	0	6	96	96	3
STR	59	0	7
SI_	59	0	7	96	96	2
HLD	60	0	2	192
HLD	60	192	3	192
HLD	61	0	4	192
TAP	61	192	5
HLD	62	0	5	192
HLD	62	192	4	192
HLD	63	0	3	192
TAP	63	192	2
HLD	64	0	1	192
HLD	64	192	2	192
HLD	65	0	3	192
TAP	65	192	4
HLD	66	0	6	192
HLD	66	192	5	192
HLD	67	0	4	192
TAP	67	192	3
HLD	68	0	2	192
HLD	68	0	3	192
TAP	69	0	2
TAP	69	192	3
HLD	70	0	4	192
HLD	70	0	5	192
TAP	71	0	5
TAP	71	192	4
HLD	72	0	0	192
HLD	72	0	1	192
TAP	73	0	1
TAP	73	192	0
HLD	74	0	6	192
HLD	74	0	7	192
TAP	75	0	6
TAP	75	192	7
HLD	76	0	2	192
HLD	76	0	3	192
TAP	77	0	2
TAP	77	96	2
TAP	77	192	3
HLD	78	0	4	192
HLD	78	0	5	192
TAP	79	0	5
TAP	79	96	5
TAP	79	192	4
HLD	80	0	0	192
HLD	80	0	1	192
TAP	81	0	1
TAP	81	96	1
TAP	81	192	0
HLD	82	0	6	192
HLD	82	0	7	192
TAP	83	0	6
TAP	83	96	6
TAP	83	192	7
BRK	84	0	0
BRK	84	96	0
TAP	84	192	1
TAP	84	288	2
TAP	85	0	3
TAP	85	96	4
TAP	85	192	5
TAP	85	288	6
TAP	85	288	7
TAP	86	0	5
TAP	86	96	4
TAP	86	192	3
TAP	86	288	2
TAP	87	0	0
TAP	87	0	1
TAP	87	96	0
TAP	87	96	7
TAP	87	192	6
TAP	87	192	7
BRK	88	0	7
BRK	88	96	7
TAP	88	192	6
TAP	88	288	5
TAP	89	0	4
TAP	89	96	3
TAP	89	192	2
TAP	89	288	0
TAP	89	288	1
TAP	90	0	2
TAP	90	96	3
TAP	90	192	4
TAP	90	288	5
TAP	91	0	6
TAP	91	0	7
TAP	91	96	0
TAP	91	96	7
TAP	91	192	0
TAP	91	192	1
TAP	92	0	4
TAP	92	96	5
TAP	92	192	6
TAP	92	288	7
TAP	93	0	0
TAP	93	0	1
TAP	93	96	0
TAP	93	96	1
TAP	93	192	2
TAP	93	192	7
TAP	93	288	2
TAP	93	288	7
TAP	94	0	3
TAP	94	96	2
TAP	94	192	1
TAP	94	288	0
STR	95	0	6
SI_	95	0	6	96	96	3
STR	95	0	7
SI_	95	0	7	96	96	2
TAP	96	0	3
TAP	96	96	2
TAP	96	192	1
TAP	96	288	0
TAP	97	0	6
TAP	97	0	7
TAP	97	96	6
TAP	97	96	7
TAP	97	192	0
TAP	97	192	5
TAP	97	288	0
TAP	97	288	5
TAP	98	0	4
TAP	98	96	5
TAP	98	192	6
TAP	98	288	7
STR	99	0	0
SI_	99	0	0	96	96	5
STR	99	0	1
SI_	99	0	1	96	96	4
TAP	100	0	0
TAP	100	96	1
TAP	100	192	2
TAP	100	288	3
TAP	101	0	4
TAP	101	0	5
TAP	101	96	4
TAP	101	96	5
TAP	101	192	3
TAP	101	192	6
TAP	101	288	3
TAP	101	288	6
TAP	102	0	7
TAP	102	96	6
TAP	102	192	5
TAP	102	288	4
STR	103	0	2
SI_	103	0	2	96	96	7
STR	103	0	3
SI_	103	0	3	96	96	6
TAP	104	0	7
TAP	104	96	6
TAP	104	192	5
TAP	104	288	4
TAP	105	0	2
TAP	105	0	3
TAP	105	96	2
TAP	105	96	3
TAP	105	192	1
TAP	105	192	4
TAP	105	288	1
TAP	105	288	4
TAP	106	0	0
TAP	106	96	1
TAP	106	192	2
TAP	106	288	3
STR	107	0	4
SI_	107	0	4	96	96	1
STR	107	0	5
SI_	107	0	5	96	96	0
HLD	108	0	1	384
HLD	109	0	0	384
HLD	110	0	7	384
TAP	111	0	6
HLD	112	0	5	384
HLD	113	0	4	384
HLD	114	0	3	384
TAP	115	0	2

T_REC_TAP	271
T_REC_BRK	8
T_REC_XTP	0
T_REC_HLD	53
T_REC_XHO	0
T_REC_STR	26
T_REC_BST	0
T_REC_XST	0
T_REC_TTP	0
T_REC_THO	0
T_REC_SLD	26
T_REC_ALL	384
T_NUM_TAP	297
T_NUM_BRK	8
T_NUM_HLD	53
T_NUM_SLD	26
T_NUM_ALL	384
T_JUDGE_TAP	305
T_JUDGE_HLD	236
T_JUDGE_SLD	26
T_JUDGE_ALL	567
TTM_EACHPAIRS	68
TTM_SCR_TAP	148500
TTM_SCR_BRK	20800
TTM_SCR_HLD	53000
TTM_SCR_SLD	39000
TTM_SCR_ALL	261300
TTM_SCR_S	252700
TTM_SCR_SS	260500
TTM_RAT_ACV	10030

