VERSION	0.00.00	1.03.00
FES_MODE	0
BPM_DEF	210.000	210.000	210.000	210.000
MET_DEF	4	4
RESOLUTION	384
CLK_DEF	384
COMPATIBLE_CODE	MA2

BPM	0	0	210.000
MET	0	0	4	4

TAP	10	0	3
TAP	10	192	3
TAP	11	0	2
TAP	11	192	2
TAP	12	0	1
TAP	12	192	1
TAP	13	0	0
TAP	13	0	7
TAP	14	0	7
TAP	14	192	7
TAP	15	0	6
TAP	15	192	6
TAP	16	0	5
TAP	16	192	5
TAP	17	0	3
TAP	17	0	4
HLD	18	0	3	384
TAP	20	0	2
TAP	20	192	2
TAP	21	0	1
TAP	21	192	1
HLD	22	0	1	384
TAP	24	0	1
TAP	24	192	1
TAP	25	0	0
TAP	25	0	7
TAP	26	0	7
TAP	26	96	7
TAP	26	192	7
TAP	27	0	6
TAP	27	96	6
TAP	27	192	6
TAP	28	0	5
TAP	28	96	5
TAP	28	192	5
TAP	29	0	4
TAP	29	96	4
TAP	29	192	4
TAP	30	0	3
TAP	30	96	3
TAP	30	192	3
TAP	31	0	2
TAP	31	96	2
TAP	31	192	2
TAP	32	0	1
TAP	32	96	1
TAP	32	192	1
TAP	33	0	0
TAP	33	96	0
TAP	33	192	0
STR	34	0	0
SI_	34	0	0	96	288	4
TAP	36	0	5
TAP	36	192	5
TAP	37	0	6
TAP	37	192	6
STR	38	0	7
SI_	38	0	7	96	288	3
TAP	40	0	2
TAP	40	192	2
TAP	41	0	1
TAP	41	192	1
BRK	42	0	0
BRK	42	0	7
TAP	44	0	0
TAP	44	96	0
TAP	44	192	0
TAP	44	288	0
TAP	45	0	1
TAP	45	96	1
TAP	45	192	1
TAP	46	0	2
TAP	46	96	2
TAP	46	192	3
TAP	46	288	3
TAP	47	0	4
TAP	47	96	4
TAP	47	192	3
TAP	47	192	4
TAP	48	0	4
TAP	48	96	4
TAP	48	192	4
TAP	48	288	4
TAP	49	0	5
TAP	49	96	5
TAP	49	192	5
TAP	50	0	6
TAP	50	96	6
TAP	50	192	7
TAP	50	288	7
HLD	51	0	0	192
HLD	51	0	7	192
TAP	52	0	7
TAP	52	96	7
TAP	52	192	7
TAP	52	288	7
TAP	53	0	6
TAP	53	96	6
TAP	53	192	6
TAP	54	0	5
TAP	54	96	5
TAP	54	192	4
TAP	54	288	4
TAP	55	0	3
TAP	55	96	3
TAP	55	192	3
TAP	55	192	4
TAP	56	0	3
TAP	56	96	3
TAP	56	192	3
TAP	56	288	3
TAP	57	0	2
TAP	57	96	2
TAP	57	192	2
TAP	58	0	1
TAP	58	96	1
TAP	58	192	0
TAP	58	288	0
TAP	59	0	0
TAP	59	0	7
STR	60	0	0
SI_	60	0	0	96	288	3
STR	62	0	7
SI_	62	0	7	96	288	4
STR	64	0	3
SI_	64	0	3	96	288	0
STR	66	0	4
SI_	66	0	4	96	288	7
TAP	68	0	0
TAP	69	0	0
TAP	70	0	1
TAP	71	0	1
TAP	72	0	2
TAP	73	0	2
TAP	74	0	3
TAP	74	192	4
TAP	75	0	3
TAP	75	0	4
TAP	76	0	4
TAP	76	192	4
TAP	77	0	4
TAP	78	0	5
TAP	78	192	5
TAP	79	0	4
TAP	79	0	5
TAP	80	0	6
TAP	80	192	6
TAP	81	0	6
TAP	82	0	7
TAP	82	192	0
BRK	83	0	0
BRK	83	0	7
TAP	84	0	7
TAP	84	96	7
TAP	84	192	7
TAP	84	288	7
TAP	85	0	6
TAP	85	96	6
TAP	85	192	6
TAP	86	0	5
TAP	86	96	5
TAP	86	192	4
TAP	86	288	4
TAP	87	0	3
TAP	87	96	4
TAP	87	192	3
TAP	88	0	3
TAP	88	96	3
TAP	88	192	3
TAP	88	288	3
TAP	89	0	2
TAP	89	96	2
TAP	89	192	2
TAP	90	0	1
TAP	90	96	1
TAP	90	192	0
TAP	90	288	0
TAP	91	0	7
TAP	91	96	0
TAP	91	192	7
STR	92	0	0
SI_	92	0	0	96	288	3
STR	94	0	7
SI_	94	0	7	96	288	4
STR	96	0	0
SI_	96	0	0	96	288	4
STR	98	0	7
SI_	98	0	7	96	288	3
TAP	100	0	0
TAP	100	96	0
TAP	100	192	0
TAP	100	288	0
TAP	101	0	1
TAP	101	96	1
TAP	101	192	1
TAP	102	0	2
TAP	102	96	2
TAP	102	192	3
TAP	102	288	3
TAP	103	0	4
TAP	103	96	3
TAP	103	192	3
TAP	103	192	4
TAP	104	0	4
TAP	104	96	4
TAP	104	192	4
TAP	104	288	4
TAP	105	0	5
TAP	105	96	5
TAP	105	192	5
TAP	106	0	6
TAP	106	96	6
TAP	106	192	7
TAP	106	288	7
TAP	107	0	0
TAP	107	96	7
TAP	107	192	0
TAP	107	192	7
HLD	108	0	0	384
HLD	110	0	1	384
HLD	112	0	2	384
HLD	114	0	3	384
HLD	114	0	4	384

T_REC_TAP	190
T_REC_BRK	4
T_REC_XTP	0
T_REC_HLD	9
T_REC_XHO	0
T_REC_STR	10
T_REC_BST	0
T_REC_XST	0
T_REC_TTP	0
T_REC_THO	0
T_REC_SLD	10
T_REC_ALL	223
T_NUM_TAP	200
T_NUM_BRK	4
T_NUM_HLD	9
T_NUM_SLD	10
T_NUM_ALL	223
T_JUDGE_TAP	204
T_JUDGE_HLD	64
T_JUDGE_SLD	10
T_JUDGE_ALL	278
TTM_EACHPAIRS	14
TTM_SCR_TAP	100000
TTM_SCR_BRK	10400
TTM_SCR_HLD	9000
TTM_SCR_SLD	15000
TTM_SCR_ALL	134400
TTM_SCR_S	130000
TTM_SCR_SS	134000
TTM_RAT_ACV	10029

