VERSION	0.00.00	1.03.00
FES_MODE	0
BPM_DEF	140.000	140.000	178.000	140.000
MET_DEF	8	6
RESOLUTION	384
CLK_DEF	384
COMPATIBLE_CODE	MA2

BPM	0	0	140.000
BPM	43	192	141.892
BPM	43	288	145.692
BPM	44	0	149.492
BPM	44	96	153.292
BPM	44	192	157.092
BPM	44	288	160.893
BPM	45	0	164.693
BPM	45	96	168.493
BPM	45	192	172.293
BPM	45	288	176.094
BPM	46	0	178.000
MET	0	0	4	4

HLD	1	0	1	72
HLD	1	72	2	72
TAP	1	144	3
HLD	1	192	6	72
HLD	1	264	5	72
TAP	1	336	4
HLD	2	0	1	72
HLD	2	72	2	72
TAP	2	144	3
STR	2	192	6
SUL	2	192	6	96	48	1
TAP	2	240	7
TAP	2	288	0
TAP	3	0	3
TAP	3	0	4
TAP	3	48	1
TAP	3	72	1
TAP	3	120	5
TAP	3	144	3
TAP	3	168	4
TAP	3	192	2
TAP	3	240	6
TAP	3	264	6
TAP	3	312	2
TAP	3	336	4
TAP	3	360	3
TAP	4	0	5
TAP	4	48	1
TAP	4	72	1
TAP	4	120	5
TAP	4	144	3
TAP	4	168	4
TAP	4	192	2
TAP	4	240	6
TAP	4	264	6
TAP	4	312	3
TAP	4	336	4
TAP	4	360	3
TAP	5	0	4
TAP	5	48	4
TAP	5	96	5
TAP	5	144	5
TAP	5	192	6
TAP	5	240	6
TAP	5	288	5
TAP	5	336	4
TAP	6	0	3
TAP	6	48	3
TAP	6	96	2
TAP	6	144	2
TAP	6	192	1
TAP	6	240	1
TAP	6	288	2
TAP	6	336	3
TAP	7	0	3
TAP	7	0	4
TAP	7	48	6
TAP	7	72	6
TAP	7	120	2
TAP	7	144	4
TAP	7	168	3
TAP	7	192	5
TAP	7	240	1
TAP	7	264	1
TAP	7	312	5
TAP	7	336	3
TAP	7	360	4
TAP	8	0	2
TAP	8	48	6
TAP	8	72	6
TAP	8	120	2
TAP	8	144	4
TAP	8	168	3
TAP	8	192	5
TAP	8	240	1
TAP	8	264	1
TAP	8	312	4
TAP	8	336	3
TAP	8	360	4
HLD	9	0	3	72
TAP	9	72	1
TAP	9	120	5
TAP	9	144	5
TAP	9	168	5
HLD	9	192	5	72
TAP	9	264	7
TAP	9	312	1
TAP	9	336	1
TAP	9	360	1
HLD	10	0	1	72
TAP	10	72	0
TAP	10	144	3
TAP	10	144	4
HLD	10	192	6	72
TAP	10	264	7
TAP	11	0	1
TAP	11	0	6
TAP	11	48	4
TAP	11	72	3
TAP	11	120	2
TAP	11	144	3
TAP	11	168	2
TAP	11	192	1
TAP	11	192	4
TAP	11	240	3
TAP	11	264	4
TAP	11	312	5
TAP	11	336	4
TAP	11	360	5
TAP	12	0	3
TAP	12	0	6
TAP	12	48	0
TAP	12	96	1
TAP	12	96	4
TAP	12	144	7
TAP	12	192	2
TAP	12	192	5
TAP	12	240	0
TAP	12	240	7
HLD	13	0	1	72
HLD	13	72	2	72
TAP	13	144	3
HLD	13	192	6	72
HLD	13	264	5	72
TAP	13	336	4
HLD	14	0	1	72
HLD	14	72	2	72
TAP	14	144	3
TAP	14	192	6
TAP	14	240	7
TAP	14	288	0
TAP	14	336	1
TAP	15	0	2
TAP	15	0	7
TAP	15	48	6
TAP	15	96	0
TAP	15	96	5
TAP	15	144	1
TAP	15	192	3
TAP	15	192	7
TAP	15	240	6
TAP	15	288	0
TAP	15	288	4
TAP	15	336	1
TAP	16	0	3
TAP	16	24	4
TAP	16	48	1
TAP	16	72	4
TAP	16	96	3
TAP	16	120	4
TAP	16	144	0
TAP	16	168	4
TAP	16	192	3
TAP	16	216	4
TAP	16	240	7
TAP	16	264	4
TAP	16	288	3
TAP	16	312	4
TAP	16	336	6
TAP	16	360	4
BST	17	0	3
SCL	17	0	3	96	384	4
HLD	18	48	7	96
TAP	18	144	0
STR	18	192	1
SI_	18	192	1	96	48	4
TAP	18	240	0
TAP	18	288	7
TAP	18	336	6
STR	19	0	5
SI_	19	0	5	96	48	0
TAP	19	96	1
TAP	19	144	2
TAP	19	192	3
TAP	19	240	2
TAP	19	240	4
TAP	19	288	1
TAP	19	288	5
TAP	19	336	0
TAP	19	336	6
STR	20	0	7
SI_	20	0	7	96	24	1
STR	20	96	6
SI_	20	96	6	96	48	2
STR	20	192	5
SI_	20	192	5	96	24	3
TAP	20	288	0
TAP	21	0	3
TAP	21	0	4
TAP	21	48	2
TAP	21	96	3
TAP	21	144	1
TAP	21	144	4
TAP	21	192	5
TAP	21	240	4
TAP	21	288	3
TAP	21	288	6
TAP	21	336	7
STR	22	0	7
SCR	22	0	7	96	96	3
STR	22	96	3
SCR	22	96	3	96	96	7
STR	22	192	7
SF_	22	192	7	96	48	3
STR	23	0	2
SI_	23	0	2	96	48	7
STR	23	0	4
SI_	23	0	4	96	48	7
TAP	23	192	5
TAP	23	240	4
TAP	23	288	3
TAP	23	336	2
TAP	24	0	1
TAP	24	0	3
TAP	24	48	2
TAP	24	96	4
TAP	24	96	6
TAP	24	144	5
STR	24	192	3
SUR	24	192	3	96	48	0
STR	24	192	4
SUL	24	192	4	96	48	7
STR	25	0	0
SI_	25	0	0	96	48	3
STR	25	0	1
SI_	25	0	1	96	48	6
TAP	25	48	2
TAP	25	48	7
STR	25	192	4
SI_	25	192	4	96	48	7
STR	25	192	5
SI_	25	192	5	96	48	2
TAP	25	240	3
TAP	25	240	6
HLD	26	0	1	96
TAP	26	48	7
HLD	26	96	5	96
TAP	26	144	7
HLD	26	192	2	96
TAP	26	240	7
BST	26	288	4
SXL	26	288	4	96	96	3
STR	27	0	3
SCL	27	0	3	96	96	4
TAP	27	96	7
TAP	27	240	2
STR	27	288	3
SXR	27	288	3	96	96	4
TAP	27	336	5
STR	28	0	4
SCR	28	0	4	96	96	3
TAP	28	96	0
STR	28	288	7
SLL	28	288	7	96	96	2
STR	29	0	2
SCL	29	0	2	96	96	6
STR	29	96	6
SLR	29	96	6	96	96	3
STR	29	192	3
SCR	29	192	3	96	96	7
STR	29	288	7
SI_	29	288	7	96	96	2
STR	30	0	2
SSL	30	0	2	96	96	6
BRK	30	144	7
STR	30	288	6
SLL	30	288	6	96	48	1
STR	31	0	2
SLL	31	0	2	96	48	5
TAP	31	0	6
TAP	31	96	2
TAP	31	96	6
TAP	31	240	0
STR	31	288	1
SLR	31	288	1	96	48	6
TAP	31	336	4
TAP	32	0	1
STR	32	0	5
SLR	32	0	5	96	48	2
TAP	32	96	1
TAP	32	96	5
STR	32	240	2
SCR	32	240	2	96	48	5
TAP	32	336	2
HLD	33	0	6	96
TAP	33	48	0
HLD	33	96	2	96
TAP	33	144	0
HLD	33	192	5	96
TAP	33	240	0
HLD	33	288	3	96
TAP	33	336	0
STR	34	0	4
SI_	34	0	4	96	48	0
STR	34	96	2
SI_	34	96	2	96	48	6
STR	34	192	2
SV_	34	192	2	96	48	0
STR	34	192	6
SV_	34	192	6	96	48	4
STR	35	0	3
SI_	35	0	3	96	48	0
STR	35	48	4
SI_	35	48	4	96	48	7
TAP	35	96	3
TAP	35	144	4
TAP	35	240	2
TAP	35	240	3
STR	35	288	3
SI_	35	288	3	96	24	1
TAP	35	288	4
TAP	35	336	4
TAP	35	336	5
TAP	36	0	3
STR	36	0	4
SI_	36	0	4	96	24	6
STR	36	96	3
SI_	36	96	3	96	48	1
STR	36	96	4
SI_	36	96	4	96	48	0
STR	36	192	3
SI_	36	192	3	96	48	7
STR	36	192	4
SI_	36	192	4	96	48	6
STR	37	0	0
SI_	37	0	0	96	48	3
STR	37	48	7
SI_	37	48	7	96	48	4
TAP	37	96	0
TAP	37	144	7
TAP	37	240	3
TAP	37	240	4
TAP	37	288	1
TAP	37	288	2
TAP	37	336	0
TAP	37	336	7
TAP	38	0	5
TAP	38	0	6
STR	38	48	3
SUR	38	48	3	96	96	4
STR	38	48	4
SCR	38	48	4	96	96	3
BRK	38	288	1
BRK	38	288	6
TAP	39	0	3
TAP	39	0	4
STR	39	48	3
SI_	39	48	3	96	48	1
TAP	39	48	4
STR	39	144	3
SI_	39	144	3	96	48	6
TAP	39	144	4
TAP	39	240	2
STR	39	240	3
SI_	39	240	3	96	24	1
TAP	39	336	3
STR	39	336	4
SI_	39	336	4	96	48	6
TAP	40	48	3
STR	40	48	4
SI_	40	48	4	96	48	1
STR	40	144	4
SI_	40	144	4	96	48	7
TAP	40	144	5
STR	40	240	3
SI_	40	240	3	96	48	0
TAP	40	240	4
TAP	40	336	3
TAP	40	336	4
TAP	41	0	4
TAP	41	48	5
TAP	41	96	6
TAP	41	144	7
TAP	41	192	0
TAP	41	240	1
TAP	41	288	2
TAP	41	336	3
BRK	42	0	0
BRK	42	0	4
HLD	42	96	3	96
HLD	42	192	1	96
HLD	42	288	7	96
HLD	43	0	5	96
HLD	43	96	3	96
TAP	43	192	2
TAP	43	288	4
TAP	43	288	5
TAP	44	0	1
TAP	44	0	2
TAP	44	96	6
TAP	44	96	7
TAP	44	192	2
TAP	44	224	3
TAP	44	256	2
TAP	44	288	5
TAP	44	320	4
TAP	44	352	5
TAP	45	0	1
TAP	45	32	3
TAP	45	64	2
TAP	45	96	6
TAP	45	128	4
TAP	45	160	5
TAP	45	192	0
TAP	45	208	1
TAP	45	224	2
TAP	45	240	3
TAP	45	256	4
TAP	45	272	5
TAP	45	288	6
TAP	45	304	7
TAP	45	320	0
TAP	45	336	1
TAP	45	352	2
TAP	45	368	3
STR	46	0	5
SI_	46	0	5	96	48	0
TAP	46	96	2
STR	46	192	5
SI_	46	192	5	96	48	0
TAP	46	288	2
TAP	47	0	1
STR	47	0	5
SI_	47	0	5	96	48	0
TAP	47	96	2
TAP	47	192	3
STR	47	192	5
SI_	47	192	5	96	48	0
TAP	47	288	4
STR	48	0	5
SI_	48	0	5	96	48	0
TAP	48	96	2
STR	48	192	5
SI_	48	192	5	96	48	0
TAP	48	288	2
TAP	49	0	4
STR	49	0	5
SI_	49	0	5	96	48	0
TAP	49	96	3
TAP	49	192	2
STR	49	192	5
SI_	49	192	5	96	48	0
TAP	49	240	1
TAP	49	288	1
STR	50	0	2
SI_	50	0	2	96	48	7
TAP	50	96	5
STR	50	192	2
SI_	50	192	2	96	48	7
TAP	50	288	5
STR	51	0	2
SI_	51	0	2	96	48	7
TAP	51	0	3
TAP	51	96	4
STR	51	192	2
SI_	51	192	2	96	48	7
TAP	51	192	5
STR	52	0	2
SI_	52	0	2	96	48	7
TAP	52	96	5
STR	52	192	2
SI_	52	192	2	96	48	7
TAP	52	288	5
STR	52	336	5
SCR	52	336	5	96	96	0
STR	53	48	0
SCR	53	48	0	96	96	3
STR	53	144	3
SCR	53	144	3	96	96	6
BRK	54	0	4
BRK	54	192	5
TAP	54	336	6
TAP	55	0	6
TAP	55	48	6
TAP	55	144	7
STR	55	192	7
SF_	55	192	7	96	48	3
TAP	55	288	7
STR	56	96	1
SI_	56	96	1	96	48	4
STR	56	96	2
SI_	56	96	2	96	48	7
TAP	56	192	1
TAP	56	192	2
STR	56	336	7
SI_	56	336	7	96	48	4
SSR	56	336	7	96	48	3
TAP	57	48	7
TAP	57	144	1
TAP	57	144	5
TAP	57	192	1
TAP	57	192	5
TAP	58	0	5
BRK	58	0	6
BRK	58	192	1
TAP	58	192	2
STR	58	336	5
SI_	58	336	5	96	48	0
STR	58	336	6
SI_	58	336	6	96	48	3
TAP	59	48	5
TAP	59	48	6
STR	59	144	7
SI_	59	144	7	96	48	4
STR	59	192	4
SXR	59	192	4	96	96	4
TAP	60	96	1
TAP	60	96	6
TAP	60	192	5
TAP	60	240	4
TAP	60	288	3
STR	60	336	2
SCR	60	336	2	96	96	5
STR	61	48	5
SCR	61	48	5	96	96	0
STR	61	144	0
SCR	61	144	0	96	96	3
TAP	61	240	3
HLD	61	336	6	816
TAP	62	0	4
TAP	62	48	4
TAP	62	96	4
TAP	62	144	4
TAP	62	192	4
TAP	62	240	4
TAP	62	288	4
TAP	62	336	4
TAP	63	0	4
TAP	63	48	4
STR	63	96	4
SI_	63	96	4	96	48	7
TAP	63	144	4
STR	63	192	4
SI_	63	192	4	96	48	0
HLD	64	0	1	576
TAP	64	48	3
TAP	64	96	3
TAP	64	144	3
TAP	64	192	3
TAP	64	240	3
TAP	64	288	3
TAP	64	336	3
TAP	65	0	3
TAP	65	48	3
STR	65	96	3
SI_	65	96	3	96	48	6
STR	65	144	3
SI_	65	144	3	96	48	0
STR	65	192	3
SI_	65	192	3	96	48	7
TAP	66	0	2
TAP	66	0	6
TAP	66	48	5
TAP	66	96	4
TAP	66	144	3
TAP	66	144	7
TAP	66	192	2
TAP	66	240	1
TAP	66	288	0
TAP	66	288	4
TAP	66	336	7
TAP	67	0	1
TAP	67	0	5
TAP	67	48	2
TAP	67	96	3
TAP	67	144	0
TAP	67	144	4
TAP	67	192	5
TAP	67	240	6
TAP	67	288	3
TAP	67	288	7
TAP	67	336	0
TAP	68	0	2
TAP	68	0	3
TAP	68	48	7
TAP	68	96	4
TAP	68	96	5
TAP	68	144	0
TAP	68	192	1
TAP	68	192	3
TAP	68	240	7
TAP	68	288	4
TAP	68	288	6
TAP	68	336	0
TAP	69	0	1
TAP	69	24	3
TAP	69	48	1
TAP	69	72	3
TAP	69	96	2
TAP	69	120	4
TAP	69	144	2
TAP	69	168	4
TAP	69	192	3
TAP	69	216	5
TAP	69	240	3
TAP	69	264	5
TAP	69	288	4
TAP	69	312	6
TAP	69	336	4
TAP	69	360	6
STR	70	0	5
SI_	70	0	5	96	48	1
STR	70	48	7
SI_	70	48	7	96	48	3
TAP	70	96	5
TAP	70	144	7
TAP	70	240	3
TAP	70	240	5
TAP	70	288	2
TAP	70	288	6
TAP	70	336	1
TAP	70	336	7
STR	71	0	0
SI_	71	0	0	96	48	4
STR	71	48	2
SI_	71	48	2	96	48	6
TAP	71	96	0
TAP	71	144	2
STR	71	288	7
SV_	71	288	7	96	96	2
STR	72	0	2
SCL	72	0	2	96	96	6
STR	72	96	6
SV_	72	96	6	96	96	3
STR	72	192	3
SCR	72	192	3	96	96	7
STR	72	288	7
SUL	72	288	7	96	96	2
STR	73	0	2
SUL	73	0	2	96	96	5
BRK	73	144	7
STR	73	288	3
SV_	73	288	3	96	48	1
STR	73	336	4
SV_	73	336	4	96	48	6
STR	74	0	3
SV_	74	0	3	96	48	0
STR	74	48	4
SV_	74	48	4	96	48	7
TAP	74	96	3
TAP	74	144	4
STR	74	240	0
SV_	74	240	0	96	48	3
STR	74	288	7
SV_	74	288	7	96	48	4
STR	74	336	0
SV_	74	336	0	96	48	2
STR	75	0	7
SV_	75	0	7	96	48	5
STR	75	48	0
SI_	75	48	0	96	48	4
TAP	75	96	7
TAP	75	144	0
TAP	75	240	5
TAP	75	288	4
TAP	75	336	3
HLD	76	0	1	48
HLD	76	0	2	48
HLD	76	96	5	48
HLD	76	96	6	48
HLD	76	192	1	48
HLD	76	192	2	48
HLD	76	288	5	48
HLD	76	288	6	48
STR	77	0	3
SCL	77	0	3	96	48	0
TAP	77	0	4
TAP	77	96	3
STR	77	96	4
SCR	77	96	4	96	48	7
STR	77	192	3
SV_	77	192	3	96	48	0
STR	77	192	4
SV_	77	192	4	96	48	7
STR	78	0	3
SI_	78	0	3	96	48	0
STR	78	48	4
SI_	78	48	4	96	48	7
TAP	78	96	3
TAP	78	144	4
TAP	78	240	2
STR	78	288	3
SCL	78	288	3	96	48	1
TAP	78	336	5
STR	79	0	4
SCR	79	0	4	96	48	6
STR	79	96	3
SI_	79	96	3	96	48	1
STR	79	96	4
SI_	79	96	4	96	48	0
STR	79	192	3
SI_	79	192	3	96	48	7
STR	79	192	4
SI_	79	192	4	96	48	6
STR	80	0	0
SI_	80	0	0	96	48	3
STR	80	48	7
SI_	80	48	7	96	48	4
TAP	80	96	0
TAP	80	144	7
TAP	80	240	3
TAP	80	240	4
TAP	80	288	5
TAP	80	288	6
TAP	80	336	0
TAP	80	336	7
TAP	81	0	1
TAP	81	0	2
STR	81	48	3
SUR	81	48	3	96	96	2
STR	81	48	4
SUL	81	48	4	96	96	5
BRK	81	288	0
BRK	81	288	7
STR	82	0	1
SI_	82	0	1	96	48	4
TAP	82	96	1
STR	82	96	6
SI_	82	96	6	96	48	3
STR	82	192	1
SI_	82	192	1	96	48	5
TAP	82	192	6
TAP	82	288	1
STR	82	288	6
SI_	82	288	6	96	48	2
STR	83	0	0
SI_	83	0	0	96	48	5
TAP	83	0	6
TAP	83	48	0
STR	83	96	7
SI_	83	96	7	96	48	2
TAP	83	144	7
STR	83	192	0
SI_	83	192	0	96	48	4
TAP	83	240	0
TAP	83	288	7
TAP	83	336	7
TAP	84	0	0
TAP	84	24	4
TAP	84	48	0
TAP	84	72	4
TAP	84	96	1
TAP	84	120	5
TAP	84	144	1
TAP	84	168	5
TAP	84	192	2
TAP	84	216	6
TAP	84	240	2
TAP	84	264	6
TAP	84	288	3
TAP	84	312	7
TAP	84	336	3
TAP	84	360	7
BRK	85	0	0
BRK	85	0	4
BRK	85	96	7
BRK	85	192	7
BRK	85	288	7
STR	86	0	0
SUL	86	0	0	96	48	3
STR	86	96	7
SUR	86	96	7	96	48	4
TAP	86	192	2
TAP	86	240	2
TAP	86	288	2
STR	87	0	6
SXR	87	0	6	96	48	4
STR	87	96	1
SXL	87	96	1	96	48	3
TAP	87	192	5
TAP	87	240	5
TAP	87	288	5
STR	88	0	2
SV_	88	0	2	96	48	3
STR	88	96	5
SV_	88	96	5	96	48	4
TAP	88	192	2
TAP	88	240	2
TAP	88	288	2
STR	89	0	2
SXL	89	0	2	96	144	3
SLL	89	0	2	96	144	3
BRK	89	288	3
STR	90	0	2
SCL	90	0	2	96	48	7
STR	90	96	5
SUR	90	96	5	96	48	1
STR	90	192	2
SUL	90	192	2	96	48	6
STR	90	288	5
SCR	90	288	5	96	48	0
TAP	91	0	2
TAP	91	48	3
TAP	91	96	4
TAP	91	144	5
TAP	91	192	0
TAP	91	192	7
HLD	92	0	1	96
TAP	92	48	3
TAP	92	96	3
HLD	92	192	6	96
TAP	92	240	4
TAP	92	288	4
HLD	93	0	0	48
HLD	93	0	2	48
HLD	93	96	5	48
HLD	93	96	7	48
TAP	93	192	3
TAP	93	192	4
BRK	93	288	1
BST	93	288	6
SXL	93	288	6	96	408	2
HLD	94	336	5	72

T_REC_TAP	460
T_REC_BRK	19
T_REC_XTP	0
T_REC_HLD	46
T_REC_XHO	0
T_REC_STR	140
T_REC_BST	3
T_REC_XST	0
T_REC_TTP	0
T_REC_THO	0
T_REC_SLD	145
T_REC_ALL	813
T_NUM_TAP	600
T_NUM_BRK	22
T_NUM_HLD	46
T_NUM_SLD	145
T_NUM_ALL	813
T_JUDGE_TAP	622
T_JUDGE_HLD	105
T_JUDGE_SLD	145
T_JUDGE_ALL	872
TTM_EACHPAIRS	110
TTM_SCR_TAP	300000
TTM_SCR_BRK	57200
TTM_SCR_HLD	46000
TTM_SCR_SLD	217500
TTM_SCR_ALL	620700
TTM_SCR_S	599950
TTM_SCR_SS	618500
TTM_RAT_ACV	10035

