VERSION	0.00.00	1.03.00
FES_MODE	0
BPM_DEF	140.000	140.000	178.000	140.000
MET_DEF	8	6
RESOLUTION	384
CLK_DEF	384
COMPATIBLE_CODE	MA2

BPM	0	0	140.000
BPM	43	192	141.892
BPM	43	288	145.692
BPM	44	0	149.492
BPM	44	96	153.292
BPM	44	192	157.092
BPM	44	288	160.893
BPM	45	0	164.693
BPM	45	96	168.493
BPM	45	192	172.293
BPM	45	288	176.094
BPM	46	0	178.000
MET	0	0	4	4

TAP	1	0	3
TAP	1	96	2
TAP	1	96	4
TAP	1	192	4
TAP	1	240	3
TAP	1	288	2
TAP	1	288	4
TAP	2	0	4
TAP	2	96	3
TAP	2	96	5
TAP	2	192	3
TAP	2	240	4
TAP	2	288	3
TAP	2	288	5
HLD	3	0	2	72
TAP	3	72	3
TAP	3	144	1
TAP	3	144	4
HLD	3	192	5	72
TAP	3	264	4
TAP	3	336	3
TAP	3	336	6
HLD	4	0	1	72
TAP	4	72	0
TAP	4	144	2
TAP	4	144	7
HLD	4	192	6	72
BRK	4	264	7
TAP	5	0	4
TAP	5	96	3
TAP	5	96	5
TAP	5	192	3
TAP	5	240	4
TAP	5	288	3
TAP	5	288	5
TAP	6	0	3
TAP	6	96	2
TAP	6	96	4
TAP	6	192	4
TAP	6	240	3
TAP	6	288	2
TAP	6	288	4
HLD	7	0	5	72
TAP	7	72	4
TAP	7	144	3
TAP	7	144	6
HLD	7	192	2	72
TAP	7	264	3
TAP	7	336	1
TAP	7	336	4
HLD	8	0	6	72
TAP	8	72	7
TAP	8	144	0
TAP	8	144	5
HLD	8	192	1	72
BRK	8	264	0
HLD	9	0	0	72
HLD	9	0	1	72
TAP	9	144	0
TAP	9	144	1
HLD	9	192	2	72
HLD	9	192	7	72
HLD	10	0	6	72
HLD	10	0	7	72
TAP	10	144	6
TAP	10	144	7
HLD	10	192	0	72
HLD	10	192	5	72
HLD	11	0	3	72
HLD	11	0	4	72
TAP	11	144	3
TAP	11	144	4
HLD	11	192	2	72
HLD	11	192	5	72
STR	12	0	1
SI_	12	0	1	96	48	4
STR	12	96	6
SI_	12	96	6	96	48	3
TAP	12	192	0
TAP	12	240	0
HLD	13	0	1	72
TAP	13	72	0
TAP	13	144	2
TAP	13	144	7
HLD	13	192	6	72
TAP	13	264	7
TAP	13	336	0
TAP	13	336	5
HLD	14	0	3	72
TAP	14	72	4
TAP	14	144	2
TAP	14	144	5
TAP	14	192	3
TAP	14	192	4
TAP	14	288	1
TAP	14	288	6
TAP	15	0	3
TAP	15	0	4
TAP	15	48	3
TAP	15	48	4
TAP	15	96	3
TAP	15	96	4
TAP	15	144	3
TAP	15	144	4
TAP	15	192	2
TAP	15	192	5
TAP	15	240	2
TAP	15	240	5
TAP	15	288	2
TAP	15	288	5
TAP	15	336	2
TAP	15	336	5
TAP	16	0	1
TAP	16	0	6
TAP	16	48	1
TAP	16	48	6
TAP	16	96	0
TAP	16	96	7
TAP	16	144	0
TAP	16	144	7
TAP	16	192	0
TAP	16	216	7
TAP	16	240	0
TAP	16	264	7
TAP	16	288	0
TAP	16	312	7
TAP	16	336	0
TAP	17	0	1
BRK	17	0	6
HLD	18	48	7	240
TAP	18	192	0
TAP	18	288	0
HLD	19	0	2	192
TAP	19	96	4
TAP	19	192	4
TAP	19	240	2
TAP	19	288	1
TAP	19	288	5
TAP	20	0	6
TAP	20	0	7
TAP	20	96	0
TAP	20	96	1
TAP	20	192	2
TAP	20	240	3
TAP	20	288	1
TAP	20	288	4
HLD	21	0	5	192
TAP	21	96	3
TAP	21	192	3
TAP	21	240	5
TAP	21	288	2
TAP	21	288	6
TAP	22	0	0
TAP	22	0	1
TAP	22	96	6
TAP	22	96	7
TAP	22	192	5
TAP	22	240	4
TAP	22	288	3
BRK	22	288	6
HLD	23	0	2	96
TAP	23	48	3
TAP	23	96	4
HLD	23	192	5	96
TAP	23	240	4
TAP	23	288	3
HLD	24	0	1	96
TAP	24	48	0
TAP	24	96	7
HLD	24	192	6	96
TAP	24	240	7
TAP	24	288	0
STR	25	0	1
SI_	25	0	1	96	48	4
TAP	25	48	7
TAP	25	96	7
STR	25	192	6
SI_	25	192	6	96	48	3
TAP	25	240	0
TAP	25	288	0
HLD	26	0	1	96
HLD	26	96	3	96
HLD	26	192	4	96
TAP	26	288	5
HLD	27	0	6	48
HLD	27	0	7	48
HLD	27	96	0	48
HLD	27	96	1	48
TAP	27	240	2
TAP	27	240	3
TAP	27	288	1
TAP	27	288	4
HLD	28	0	0	48
HLD	28	0	1	48
HLD	28	96	6	48
HLD	28	96	7	48
TAP	28	240	4
TAP	28	240	5
TAP	28	288	3
TAP	28	288	6
HLD	29	0	1	96
HLD	29	96	3	96
HLD	29	192	4	96
TAP	29	288	5
HLD	30	0	6	96
HLD	30	96	4	96
HLD	30	192	3	96
BRK	30	288	2
HLD	31	0	0	48
HLD	31	0	1	48
HLD	31	96	6	48
HLD	31	96	7	48
TAP	31	240	4
TAP	31	240	5
TAP	31	288	3
TAP	31	288	6
HLD	32	0	6	48
HLD	32	0	7	48
HLD	32	96	0	48
HLD	32	96	1	48
TAP	32	240	2
TAP	32	240	3
TAP	32	288	1
TAP	32	288	4
TAP	33	0	3
TAP	33	48	3
TAP	33	96	2
TAP	33	144	2
TAP	33	192	3
TAP	33	240	3
TAP	33	288	4
TAP	33	336	4
TAP	34	0	3
TAP	34	0	4
TAP	34	96	0
BRK	34	96	1
TAP	34	192	6
BRK	34	192	7
BRK	34	288	0
TAP	34	288	1
HLD	35	0	2	48
HLD	35	0	7	48
HLD	35	96	0	48
HLD	35	96	5	48
TAP	35	240	2
TAP	35	240	3
TAP	35	288	1
TAP	35	288	4
HLD	36	0	0	48
HLD	36	0	5	48
HLD	36	96	2	48
HLD	36	96	7	48
BRK	36	192	0
TAP	36	192	1
BRK	36	288	6
TAP	36	288	7
HLD	37	0	3	48
HLD	37	0	6	48
HLD	37	96	1	48
HLD	37	96	4	48
TAP	37	240	6
TAP	37	240	7
TAP	37	288	0
TAP	37	288	5
HLD	38	0	1	96
TAP	38	96	7
TAP	38	192	6
BRK	38	192	7
TAP	38	288	0
BRK	38	288	1
TAP	39	0	0
TAP	39	0	7
TAP	39	96	6
TAP	39	96	7
TAP	39	192	5
TAP	39	192	6
TAP	39	288	4
TAP	39	288	5
TAP	40	0	3
TAP	40	0	4
TAP	40	96	2
TAP	40	96	3
TAP	40	192	1
TAP	40	192	2
TAP	40	288	0
TAP	40	288	1
TAP	41	0	7
TAP	41	48	7
TAP	41	96	6
TAP	41	144	6
TAP	41	192	7
TAP	41	240	7
TAP	41	288	0
TAP	41	336	0
TAP	42	0	0
TAP	42	0	7
TAP	42	96	0
TAP	42	96	7
TAP	42	192	1
TAP	42	192	6
TAP	42	288	1
TAP	42	288	6
TAP	43	0	2
TAP	43	0	5
TAP	43	96	2
TAP	43	96	5
TAP	43	192	3
TAP	43	192	4
TAP	43	288	3
TAP	43	288	4
TAP	44	0	3
TAP	44	0	4
TAP	44	96	3
TAP	44	96	4
STR	44	192	3
SXR	44	192	3	96	384	0
STR	44	192	4
SXL	44	192	4	96	384	7
HLD	46	0	1	192
TAP	46	144	7
TAP	46	192	7
TAP	46	288	2
TAP	46	288	6
HLD	47	0	6	192
TAP	47	144	0
TAP	47	192	0
TAP	47	288	1
TAP	47	288	5
HLD	48	0	2	192
TAP	48	144	4
TAP	48	192	4
TAP	48	288	1
TAP	48	288	5
HLD	49	0	5	192
TAP	49	144	3
TAP	49	192	3
TAP	49	288	2
TAP	49	288	6
HLD	50	0	1	192
TAP	50	144	0
TAP	50	192	0
TAP	50	288	2
TAP	50	288	7
HLD	51	0	6	192
TAP	51	144	7
TAP	51	192	7
TAP	51	288	0
TAP	51	288	5
TAP	52	0	2
TAP	52	48	4
TAP	52	96	3
TAP	52	192	5
TAP	52	240	3
TAP	52	288	4
TAP	52	336	3
TAP	52	336	4
TAP	53	48	2
TAP	53	48	5
TAP	53	144	1
TAP	53	144	6
HLD	53	192	1	96
HLD	53	192	6	96
BST	54	0	0
SI_	54	0	0	96	72	4
TAP	54	0	7
BST	54	192	6
SI_	54	192	6	96	72	2
TAP	54	336	0
TAP	55	48	0
TAP	55	144	0
TAP	55	144	7
HLD	55	192	1	96
HLD	55	192	6	96
TAP	56	0	2
TAP	56	48	3
TAP	56	96	1
TAP	56	192	5
TAP	56	240	4
TAP	56	288	6
TAP	56	336	6
TAP	56	336	7
TAP	57	48	0
TAP	57	48	1
TAP	57	144	2
TAP	57	144	3
HLD	57	192	2	96
HLD	57	192	3	96
TAP	58	0	0
BST	58	0	7
SI_	58	0	7	96	72	3
BST	58	192	1
SI_	58	192	1	96	72	5
TAP	58	336	7
TAP	59	48	7
TAP	59	144	0
TAP	59	144	7
HLD	59	192	1	96
HLD	59	192	6	96
TAP	60	0	5
TAP	60	48	4
TAP	60	96	6
TAP	60	192	2
TAP	60	240	3
TAP	60	288	1
TAP	60	336	0
TAP	60	336	1
TAP	61	48	6
TAP	61	48	7
TAP	61	144	4
TAP	61	144	5
TAP	61	240	2
TAP	61	240	3
TAP	61	336	0
STR	61	336	1
SUR	61	336	1	96	336	4
TAP	63	192	6
TAP	63	240	7
TAP	63	288	6
TAP	63	336	7
STR	64	0	6
SUL	64	0	6	96	288	3
TAP	65	192	2
TAP	65	240	3
TAP	65	288	2
TAP	65	336	3
STR	66	0	2
SXR	66	0	2	96	288	6
TAP	67	192	5
TAP	67	240	4
TAP	67	288	5
TAP	67	336	4
STR	68	0	5
SXL	68	0	5	96	288	1
TAP	69	240	2
TAP	69	240	3
TAP	69	288	2
TAP	69	288	3
HLD	70	0	0	48
HLD	70	0	1	48
HLD	70	96	6	48
HLD	70	96	7	48
TAP	70	240	4
TAP	70	240	5
TAP	70	288	3
TAP	70	288	6
HLD	71	0	6	48
HLD	71	0	7	48
HLD	71	96	0	48
HLD	71	96	1	48
TAP	71	240	2
TAP	71	240	3
TAP	71	288	1
TAP	71	288	4
HLD	72	0	6	96
HLD	72	96	4	96
HLD	72	192	3	96
TAP	72	288	2
HLD	73	0	1	96
HLD	73	96	3	96
HLD	73	192	4	96
BRK	73	288	5
HLD	74	0	6	48
HLD	74	0	7	48
HLD	74	96	0	48
HLD	74	96	1	48
TAP	74	240	2
TAP	74	240	3
TAP	74	288	1
TAP	74	288	4
HLD	75	0	0	48
HLD	75	0	1	48
HLD	75	96	6	48
HLD	75	96	7	48
TAP	75	240	4
TAP	75	240	5
TAP	75	288	3
TAP	75	288	6
TAP	76	0	4
TAP	76	48	4
TAP	76	96	5
TAP	76	144	5
TAP	76	192	4
TAP	76	240	4
TAP	76	288	3
TAP	76	336	3
TAP	77	0	3
TAP	77	0	4
BRK	77	96	6
TAP	77	96	7
BRK	77	192	0
TAP	77	192	1
TAP	77	288	6
BRK	77	288	7
HLD	78	0	0	48
HLD	78	0	5	48
HLD	78	96	2	48
HLD	78	96	7	48
TAP	78	240	4
TAP	78	240	5
TAP	78	288	3
TAP	78	288	6
HLD	79	0	2	48
HLD	79	0	7	48
HLD	79	96	0	48
HLD	79	96	5	48
TAP	79	192	6
BRK	79	192	7
TAP	79	288	0
BRK	79	288	1
HLD	80	0	1	48
HLD	80	0	4	48
HLD	80	96	3	48
HLD	80	96	6	48
TAP	80	240	0
TAP	80	240	1
TAP	80	288	2
TAP	80	288	7
HLD	81	0	6	96
TAP	81	96	0
BRK	81	192	0
TAP	81	192	1
BRK	81	288	6
TAP	81	288	7
TAP	82	0	0
TAP	82	0	7
TAP	82	96	0
TAP	82	96	1
TAP	82	192	1
TAP	82	192	2
TAP	82	288	2
TAP	82	288	3
TAP	83	0	3
TAP	83	0	4
TAP	83	96	4
TAP	83	96	5
TAP	83	192	5
TAP	83	192	6
TAP	83	288	6
TAP	83	288	7
TAP	84	0	0
TAP	84	48	0
TAP	84	96	1
TAP	84	144	1
TAP	84	192	0
TAP	84	240	0
TAP	84	288	7
TAP	84	336	7
TAP	85	0	0
TAP	85	0	7
TAP	85	96	2
BRK	85	96	6
BRK	85	192	1
TAP	85	192	5
TAP	85	288	2
BRK	85	288	6
TAP	86	0	3
TAP	86	0	5
TAP	86	96	2
TAP	86	144	3
TAP	86	192	2
TAP	86	192	4
TAP	86	288	5
TAP	86	336	4
TAP	87	0	3
TAP	87	0	5
TAP	87	96	2
TAP	87	144	3
TAP	87	192	1
TAP	87	192	4
TAP	87	288	0
TAP	87	288	7
TAP	88	0	2
TAP	88	0	4
TAP	88	96	5
TAP	88	144	4
TAP	88	192	3
TAP	88	192	5
TAP	88	288	2
TAP	88	336	3
TAP	89	0	2
TAP	89	0	4
TAP	89	96	5
TAP	89	144	4
TAP	89	192	3
TAP	89	192	6
TAP	89	288	0
TAP	89	288	7
TAP	90	0	0
TAP	90	0	6
TAP	90	96	1
TAP	90	144	0
TAP	90	192	1
TAP	90	192	7
TAP	90	288	6
TAP	90	336	7
TAP	91	0	0
TAP	91	0	6
TAP	91	96	1
TAP	91	144	0
TAP	91	192	2
TAP	91	192	7
TAP	91	288	3
TAP	91	288	4
TAP	92	0	4
TAP	92	48	4
TAP	92	96	5
TAP	92	144	5
TAP	92	192	4
TAP	92	240	4
TAP	92	288	3
TAP	92	336	3
TAP	93	0	2
TAP	93	48	3
TAP	93	96	4
TAP	93	144	5
STR	93	192	4
SI_	93	192	4	96	72	0
TAP	93	288	5
BRK	94	336	7

T_REC_TAP	448
T_REC_BRK	24
T_REC_XTP	0
T_REC_HLD	117
T_REC_XHO	0
T_REC_STR	11
T_REC_BST	4
T_REC_XST	0
T_REC_TTP	0
T_REC_THO	0
T_REC_SLD	15
T_REC_ALL	619
T_NUM_TAP	459
T_NUM_BRK	28
T_NUM_HLD	117
T_NUM_SLD	15
T_NUM_ALL	619
T_JUDGE_TAP	487
T_JUDGE_HLD	197
T_JUDGE_SLD	15
T_JUDGE_ALL	699
TTM_EACHPAIRS	190
TTM_SCR_TAP	229500
TTM_SCR_BRK	72800
TTM_SCR_HLD	117000
TTM_SCR_SLD	22500
TTM_SCR_ALL	441800
TTM_SCR_S	425850
TTM_SCR_SS	439000
TTM_RAT_ACV	10063

