VERSION	0.00.00	1.03.00
FES_MODE	0
BPM_DEF	140.000	140.000	178.000	140.000
MET_DEF	8	6
RESOLUTION	384
CLK_DEF	384
COMPATIBLE_CODE	MA2

BPM	0	0	140.000
BPM	43	192	141.892
BPM	43	288	145.692
BPM	44	0	149.492
BPM	44	96	153.292
BPM	44	192	157.092
BPM	44	288	160.893
BPM	45	0	164.693
BPM	45	96	168.493
BPM	45	192	172.293
BPM	45	288	176.094
BPM	46	0	178.000
MET	0	0	4	4

STR	1	0	1
SCR	1	0	1	96	528	0
TAP	3	0	1
TAP	3	96	0
TAP	3	96	1
TAP	3	192	2
TAP	3	288	2
TAP	3	288	3
TAP	4	0	5
TAP	4	96	4
TAP	4	96	5
TAP	4	192	6
TAP	4	288	6
TAP	4	288	7
STR	5	0	5
SUL	5	0	5	96	192	3
STR	6	0	1
SXR	6	0	1	96	192	2
TAP	7	0	6
TAP	7	96	6
TAP	7	96	7
TAP	7	192	5
TAP	7	288	4
TAP	7	288	5
TAP	8	0	2
TAP	8	96	2
TAP	8	96	3
TAP	8	192	1
TAP	8	288	0
TAP	8	288	1
HLD	9	0	2	192
HLD	9	192	3	192
HLD	10	0	4	192
TAP	10	192	5
TAP	11	0	4
TAP	11	0	5
TAP	11	96	3
TAP	11	96	4
HLD	11	192	2	96
HLD	11	192	3	96
TAP	12	0	4
TAP	12	0	5
TAP	12	96	3
TAP	12	96	4
HLD	12	192	2	96
HLD	12	192	3	96
HLD	13	0	5	96
TAP	13	96	4
HLD	13	192	2	96
TAP	13	288	3
HLD	14	0	1	96
TAP	14	96	0
HLD	14	192	6	96
TAP	14	288	7
TAP	15	0	5
TAP	15	96	4
TAP	15	96	5
TAP	15	192	2
TAP	15	288	2
TAP	15	288	3
TAP	16	0	0
TAP	16	0	1
TAP	16	96	6
TAP	16	96	7
TAP	16	192	4
TAP	16	192	5
TAP	16	288	2
TAP	16	288	3
BRK	17	0	0
BRK	17	0	7
TAP	19	0	2
TAP	19	96	3
TAP	19	192	1
TAP	19	192	4
TAP	20	0	5
TAP	20	96	4
TAP	20	192	3
TAP	20	192	6
TAP	20	288	4
TAP	20	288	5
TAP	21	0	2
TAP	21	96	3
TAP	21	192	1
TAP	21	192	4
TAP	22	0	5
TAP	22	96	4
TAP	22	192	3
TAP	22	192	6
TAP	22	288	1
TAP	22	288	4
TAP	23	0	0
TAP	23	96	0
TAP	23	96	7
TAP	23	192	6
TAP	23	288	6
TAP	23	288	7
TAP	24	0	1
TAP	24	96	0
TAP	24	96	1
TAP	24	192	6
TAP	24	288	5
TAP	24	288	7
TAP	25	0	1
TAP	25	96	0
TAP	25	96	2
TAP	25	192	3
TAP	25	192	7
TAP	25	288	4
TAP	25	288	6
STR	26	0	5
SUL	26	0	5	96	192	2
TAP	27	0	0
TAP	27	0	1
TAP	27	96	0
TAP	27	96	1
TAP	27	192	2
TAP	27	288	4
TAP	28	0	6
TAP	28	0	7
TAP	28	96	6
TAP	28	96	7
TAP	28	192	5
TAP	28	288	3
HLD	29	0	1	96
TAP	29	96	0
HLD	29	192	6	96
TAP	29	288	7
STR	30	0	5
SCR	30	0	5	96	144	2
TAP	31	0	0
TAP	31	0	1
TAP	31	96	0
TAP	31	96	1
TAP	31	192	2
TAP	31	288	4
TAP	32	0	6
TAP	32	0	7
TAP	32	96	6
TAP	32	96	7
TAP	32	192	5
TAP	32	288	3
HLD	33	0	2	96
TAP	33	96	3
HLD	33	192	5	96
TAP	33	288	4
TAP	34	0	3
TAP	34	0	6
BRK	34	96	7
BRK	34	192	0
BRK	34	288	1
BRK	34	288	6
TAP	35	0	6
TAP	35	0	7
TAP	35	96	6
TAP	35	96	7
TAP	35	192	5
TAP	35	288	3
TAP	36	0	0
TAP	36	0	1
TAP	36	96	0
TAP	36	96	1
TAP	36	192	2
TAP	36	192	7
TAP	36	288	2
TAP	36	288	7
TAP	37	0	0
TAP	37	0	1
TAP	37	96	0
TAP	37	96	1
TAP	37	192	2
TAP	37	288	4
TAP	38	0	6
TAP	38	0	7
TAP	38	96	6
TAP	38	96	7
TAP	38	192	0
TAP	38	192	5
TAP	38	288	0
TAP	38	288	5
TAP	39	0	3
TAP	39	0	4
TAP	39	96	2
TAP	39	192	3
TAP	39	192	4
TAP	39	288	5
TAP	40	0	3
TAP	40	0	4
TAP	40	96	1
TAP	40	192	3
TAP	40	192	4
TAP	40	288	6
HLD	41	0	0	192
HLD	41	192	7	192
BRK	42	0	0
TAP	43	192	3
TAP	43	288	4
TAP	44	0	3
STR	44	96	4
SCL	44	96	4	96	480	6
TAP	46	0	5
TAP	46	96	4
TAP	46	192	5
TAP	46	288	3
TAP	46	288	4
TAP	47	0	2
TAP	47	96	3
TAP	47	192	2
TAP	47	288	3
TAP	47	288	4
TAP	48	0	5
TAP	48	96	4
TAP	48	192	5
TAP	48	288	3
TAP	48	288	4
TAP	49	0	2
STR	49	96	1
SI_	49	96	1	96	96	4
TAP	50	0	5
TAP	50	96	4
TAP	50	192	5
TAP	50	288	3
TAP	50	288	6
TAP	51	0	2
TAP	51	96	3
TAP	51	192	2
TAP	51	288	1
TAP	51	288	4
TAP	52	0	5
TAP	52	96	4
TAP	52	192	5
TAP	52	288	3
TAP	52	288	6
TAP	53	0	2
STR	53	96	1
SI_	53	96	1	96	96	5
BRK	54	0	7
BRK	54	192	0
TAP	55	0	2
TAP	55	0	3
TAP	55	96	3
TAP	55	96	4
TAP	55	192	4
TAP	55	192	5
TAP	55	288	1
TAP	55	288	6
TAP	56	0	2
TAP	56	96	3
TAP	56	192	2
TAP	56	288	1
TAP	56	288	4
TAP	57	0	5
STR	57	96	6
SI_	57	96	6	96	96	2
BRK	58	0	0
BRK	58	192	7
TAP	59	0	4
TAP	59	0	5
TAP	59	96	2
TAP	59	96	3
BRK	59	192	1
BRK	59	192	6
TAP	60	0	3
TAP	60	96	4
TAP	60	192	3
TAP	60	288	2
TAP	60	288	5
TAP	61	0	1
TAP	61	96	0
TAP	61	192	7
STR	61	288	6
SXL	61	288	6	96	480	3
TAP	63	192	0
TAP	63	192	1
TAP	63	288	6
TAP	63	288	7
TAP	64	0	5
TAP	64	96	5
TAP	64	192	3
TAP	64	288	3
TAP	65	0	1
TAP	65	96	1
TAP	65	192	7
TAP	65	240	7
TAP	65	288	0
STR	66	0	2
SCR	66	0	2	96	192	5
STR	67	0	6
SUL	67	0	6	96	192	2
STR	68	0	1
SCL	68	0	1	96	192	6
TAP	69	0	0
TAP	69	0	7
TAP	69	96	1
TAP	69	96	6
TAP	69	192	2
TAP	69	192	5
TAP	69	288	3
TAP	69	288	4
TAP	70	0	6
TAP	70	0	7
TAP	70	96	6
TAP	70	96	7
TAP	70	192	5
TAP	70	288	3
TAP	71	0	0
TAP	71	0	1
TAP	71	96	0
TAP	71	96	1
TAP	71	192	2
TAP	71	288	4
HLD	72	0	6	96
TAP	72	96	7
HLD	72	192	1	96
TAP	72	288	0
STR	73	0	2
SCL	73	0	2	96	192	5
TAP	74	0	6
TAP	74	0	7
TAP	74	96	6
TAP	74	96	7
TAP	74	192	5
TAP	74	288	3
TAP	75	0	0
TAP	75	0	1
TAP	75	96	0
TAP	75	96	1
TAP	75	192	2
TAP	75	288	4
HLD	76	0	5	96
TAP	76	96	4
HLD	76	192	2	96
TAP	76	288	3
TAP	77	0	1
TAP	77	0	4
BRK	77	96	0
BRK	77	192	7
BRK	77	288	1
BRK	77	288	6
TAP	78	0	0
TAP	78	0	1
TAP	78	96	0
TAP	78	96	1
TAP	78	192	3
TAP	78	192	4
TAP	78	288	3
TAP	78	288	4
TAP	79	0	6
TAP	79	0	7
TAP	79	96	6
TAP	79	96	7
TAP	79	192	0
TAP	79	192	5
TAP	79	288	0
TAP	79	288	5
TAP	80	0	6
TAP	80	0	7
TAP	80	96	6
TAP	80	96	7
TAP	80	192	3
TAP	80	192	4
TAP	80	288	3
TAP	80	288	4
TAP	81	0	0
TAP	81	0	1
TAP	81	96	0
TAP	81	96	1
TAP	81	192	2
TAP	81	192	7
TAP	81	288	2
TAP	81	288	7
TAP	82	0	3
TAP	82	0	4
TAP	82	96	3
TAP	82	96	4
TAP	82	192	2
TAP	82	192	5
TAP	82	288	2
TAP	82	288	5
TAP	83	0	1
TAP	83	0	6
TAP	83	96	1
TAP	83	96	6
TAP	83	192	0
TAP	83	192	7
STR	83	288	0
SXL	83	288	0	96	240	1
STR	83	288	7
SXR	83	288	7	96	240	6
TAP	85	0	0
TAP	85	0	7
HLD	85	96	0	96
HLD	85	192	7	96
TAP	85	288	0
TAP	86	0	2
TAP	86	96	2
TAP	86	192	3
TAP	86	288	3
TAP	87	0	1
TAP	87	96	2
TAP	87	192	3
TAP	87	288	1
TAP	87	288	4
TAP	88	0	5
TAP	88	96	5
TAP	88	192	4
TAP	88	288	4
TAP	89	0	6
STR	89	96	5
SCL	89	96	5	96	96	2
TAP	90	0	2
TAP	90	96	2
TAP	90	192	3
TAP	90	288	3
TAP	91	0	1
TAP	91	96	0
TAP	91	192	2
TAP	91	192	7
TAP	92	0	5
TAP	92	96	5
TAP	92	192	4
TAP	92	288	4
TAP	93	0	6
TAP	93	96	7
TAP	93	192	0
TAP	93	192	5
BRK	93	288	7
STR	94	336	1
SI_	94	336	1	96	144	5

T_REC_TAP	351
T_REC_BRK	18
T_REC_XTP	0
T_REC_HLD	23
T_REC_XHO	0
T_REC_STR	18
T_REC_BST	0
T_REC_XST	0
T_REC_TTP	0
T_REC_THO	0
T_REC_SLD	18
T_REC_ALL	428
T_NUM_TAP	369
T_NUM_BRK	18
T_NUM_HLD	23
T_NUM_SLD	18
T_NUM_ALL	428
T_JUDGE_TAP	387
T_JUDGE_HLD	56
T_JUDGE_SLD	18
T_JUDGE_ALL	461
TTM_EACHPAIRS	119
TTM_SCR_TAP	184500
TTM_SCR_BRK	46800
TTM_SCR_HLD	23000
TTM_SCR_SLD	27000
TTM_SCR_ALL	281300
TTM_SCR_S	271150
TTM_SCR_SS	279500
TTM_RAT_ACV	10064

