VERSION	0.00.00	1.03.00
FES_MODE	0
BPM_DEF	140.000	140.000	178.000	140.000
MET_DEF	8	6
RESOLUTION	384
CLK_DEF	384
COMPATIBLE_CODE	MA2

BPM	0	0	140.000
BPM	43	192	141.892
BPM	43	288	145.692
BPM	44	0	149.492
BPM	44	96	153.292
BPM	44	192	157.092
BPM	44	288	160.893
BPM	45	0	164.693
BPM	45	96	168.493
BPM	45	192	172.293
BPM	45	288	176.094
BPM	46	0	178.000
MET	0	0	4	4

TAP	3	0	0
TAP	3	192	0
TAP	4	0	7
TAP	4	192	7
TAP	7	0	0
TAP	7	192	0
TAP	8	0	7
TAP	8	192	7
TAP	9	0	0
TAP	9	192	0
TAP	10	0	1
TAP	10	192	1
TAP	11	0	2
TAP	11	192	2
TAP	12	0	3
TAP	12	96	3
TAP	12	192	3
TAP	13	0	4
TAP	13	96	4
TAP	13	192	4
TAP	14	0	5
TAP	14	96	5
TAP	14	192	5
TAP	15	0	6
TAP	15	96	6
TAP	15	192	6
TAP	16	0	7
TAP	16	96	7
TAP	16	192	0
TAP	16	288	0
BRK	17	0	7
TAP	19	0	7
TAP	19	192	7
TAP	20	0	6
TAP	20	192	6
TAP	21	0	5
TAP	21	192	5
TAP	22	0	4
TAP	22	96	4
TAP	22	192	4
TAP	23	0	3
TAP	23	96	3
TAP	23	192	3
TAP	24	0	2
TAP	24	96	2
TAP	24	192	2
TAP	25	0	1
TAP	25	96	1
TAP	25	192	1
TAP	26	0	0
TAP	26	0	7
TAP	27	0	7
TAP	27	96	7
TAP	28	0	0
TAP	28	96	0
TAP	29	0	7
TAP	29	96	7
TAP	29	192	6
TAP	30	0	5
TAP	30	96	5
TAP	30	192	4
TAP	31	0	3
TAP	31	96	3
TAP	32	0	4
TAP	32	96	4
TAP	33	0	3
TAP	33	96	3
TAP	33	192	2
TAP	34	0	0
TAP	34	0	1
TAP	35	0	0
TAP	35	0	1
TAP	35	96	0
TAP	35	96	1
TAP	36	0	6
TAP	36	0	7
TAP	36	96	6
TAP	36	96	7
TAP	37	0	0
TAP	37	0	1
TAP	37	96	0
TAP	37	96	1
TAP	38	0	1
TAP	38	192	2
TAP	39	0	3
TAP	39	96	3
TAP	39	192	3
TAP	40	0	4
TAP	40	96	4
TAP	40	192	4
TAP	41	0	3
TAP	41	96	3
TAP	41	192	4
TAP	41	288	4
HLD	42	0	3	384
HLD	42	0	4	384
TAP	46	0	3
TAP	46	192	3
TAP	47	0	3
TAP	47	0	4
TAP	47	192	3
TAP	47	192	4
TAP	48	0	4
TAP	48	192	4
TAP	49	0	3
TAP	49	0	4
TAP	49	192	3
TAP	49	192	4
TAP	50	0	5
TAP	50	192	5
TAP	51	0	4
TAP	51	0	5
TAP	51	192	4
TAP	51	192	5
TAP	52	0	6
TAP	52	192	6
TAP	53	0	6
TAP	53	0	7
TAP	53	192	6
TAP	53	192	7
STR	54	0	0
SI_	54	0	0	96	288	4
TAP	56	0	5
TAP	56	192	5
TAP	57	0	6
TAP	57	192	6
STR	58	0	7
SI_	58	0	7	96	288	3
TAP	60	0	2
TAP	60	192	2
TAP	61	0	1
TAP	61	192	1
HLD	62	0	0	384
HLD	64	0	7	384
HLD	66	0	1	384
HLD	68	0	6	384
TAP	70	0	0
TAP	70	96	0
TAP	71	0	7
TAP	71	96	7
TAP	72	0	0
TAP	72	96	0
TAP	72	192	1
TAP	73	0	2
TAP	73	96	2
TAP	73	192	3
TAP	74	0	4
TAP	74	96	4
TAP	75	0	3
TAP	75	96	3
TAP	76	0	4
TAP	76	192	5
TAP	77	0	6
TAP	77	192	6
TAP	77	192	7
TAP	78	0	6
TAP	78	0	7
TAP	78	96	6
TAP	78	96	7
TAP	79	0	0
TAP	79	0	1
TAP	79	96	0
TAP	79	96	1
TAP	80	0	6
TAP	80	0	7
TAP	80	96	6
TAP	80	96	7
TAP	81	0	6
TAP	81	192	5
TAP	82	0	4
TAP	82	96	4
TAP	82	192	4
TAP	83	0	3
TAP	83	96	3
TAP	83	192	3
TAP	84	0	4
TAP	84	96	4
TAP	84	192	3
TAP	84	288	3
HLD	85	0	3	192
HLD	85	0	4	192
TAP	86	0	4
TAP	86	192	4
TAP	86	192	5
TAP	87	0	4
TAP	87	96	4
TAP	87	192	4
TAP	87	192	5
TAP	88	0	3
TAP	88	192	2
TAP	88	192	3
TAP	89	0	3
TAP	89	96	3
TAP	89	192	2
TAP	89	192	3
TAP	90	0	3
TAP	90	0	4
TAP	90	192	2
TAP	90	192	5
TAP	91	0	3
TAP	91	0	4
TAP	91	96	3
TAP	91	96	4
TAP	91	192	2
TAP	91	192	5
TAP	92	0	3
TAP	92	96	3
TAP	92	192	4
TAP	92	288	4
TAP	93	0	3
TAP	93	0	4
TAP	93	96	3
TAP	93	96	4
TAP	93	192	2
TAP	93	192	5
BRK	93	288	2
BRK	93	288	5

T_REC_TAP	202
T_REC_BRK	3
T_REC_XTP	0
T_REC_HLD	8
T_REC_XHO	0
T_REC_STR	2
T_REC_BST	0
T_REC_XST	0
T_REC_TTP	0
T_REC_THO	0
T_REC_SLD	2
T_REC_ALL	217
T_NUM_TAP	204
T_NUM_BRK	3
T_NUM_HLD	8
T_NUM_SLD	2
T_NUM_ALL	217
T_JUDGE_TAP	207
T_JUDGE_HLD	56
T_JUDGE_SLD	2
T_JUDGE_ALL	265
TTM_EACHPAIRS	38
TTM_SCR_TAP	102000
TTM_SCR_BRK	7800
TTM_SCR_HLD	8000
TTM_SCR_SLD	3000
TTM_SCR_ALL	120800
TTM_SCR_S	116900
TTM_SCR_SS	120500
TTM_RAT_ACV	10024

