VERSION	0.00.00	1.03.00
FES_MODE	0
BPM_DEF	175.000	175.000	175.000	175.000
MET_DEF	4	4
RESOLUTION	384
CLK_DEF	384
COMPATIBLE_CODE	MA2

BPM	0	0	175.000

STR	1	96	7
SCL	1	96	7	96	96	4
TAP	1	144	7
STR	1	192	0
SV_	1	192	0	96	96	3
TAP	1	240	0
STR	2	96	3
SCL	2	96	3	96	96	0
TAP	2	144	3
STR	2	192	4
SV_	2	192	4	96	96	7
TAP	2	240	4
STR	3	96	0
SCR	3	96	0	96	96	3
TAP	3	144	0
STR	3	192	7
SV_	3	192	7	96	96	5
TAP	3	240	7
STR	4	96	6
SV_	4	96	6	96	96	7
TAP	4	144	6
STR	4	192	3
SCL	4	192	3	96	96	0
TAP	4	240	3
TAP	5	96	6
TAP	5	144	7
TAP	5	192	6
HLD	5	240	7	144
TAP	6	96	5
TAP	6	144	4
TAP	6	192	5
HLD	6	240	4	144
TAP	7	96	0
TAP	7	144	1
TAP	7	192	0
HLD	7	240	1	144
HLD	8	0	2	96
HLD	8	192	1	96
HLD	8	192	3	96
BRK	9	0	0
BRK	9	0	5
TAP	9	48	1
TAP	9	48	4
TAP	9	96	2
TAP	9	120	3
TAP	9	192	2
TAP	9	192	4
TAP	9	264	1
TAP	9	264	5
TAP	9	336	0
TAP	9	336	6
STR	10	0	1
SCR	10	0	1	96	96	4
TAP	10	96	1
TAP	10	192	5
TAP	10	288	3
TAP	10	288	6
TAP	11	0	2
TAP	11	0	7
TAP	11	48	3
TAP	11	48	6
TAP	11	96	5
TAP	11	120	4
TAP	11	192	3
TAP	11	192	5
TAP	11	264	2
TAP	11	264	6
TAP	11	336	1
TAP	11	336	7
STR	12	0	6
SCL	12	0	6	96	96	3
TAP	12	96	6
TAP	12	192	2
TAP	12	288	1
TAP	12	288	4
TAP	13	0	2
TAP	13	48	5
TAP	13	96	3
TAP	13	120	4
TAP	13	192	2
TAP	13	192	5
TAP	13	264	1
TAP	13	264	6
TAP	13	336	0
TAP	13	336	7
STR	14	0	1
SCR	14	0	1	96	144	7
STR	14	0	6
SCL	14	0	6	96	144	0
TAP	14	96	1
TAP	14	96	6
TAP	14	288	2
TAP	14	288	5
TAP	15	0	1
TAP	15	0	6
TAP	15	96	1
TAP	15	120	2
TAP	15	144	3
TAP	15	168	4
TAP	15	192	7
TAP	15	216	6
TAP	15	240	5
TAP	15	264	4
TAP	15	288	0
TAP	15	312	1
TAP	15	336	2
TAP	15	360	3
TAP	16	0	4
HLD	16	0	6	192
BRK	16	192	7
BRK	16	240	7
TAP	17	96	1
TAP	17	144	0
TAP	17	192	2
HLD	17	240	7	96
TAP	17	336	0
TAP	18	96	6
TAP	18	144	7
TAP	18	192	5
HLD	18	240	0	96
TAP	18	336	7
TAP	19	96	6
TAP	19	144	2
TAP	19	192	5
HLD	19	240	3	336
HLD	19	336	4	240
TAP	20	288	2
TAP	20	288	5
TAP	21	0	0
TAP	21	0	5
TAP	21	48	6
TAP	21	72	7
TAP	21	96	6
TAP	21	144	1
TAP	21	144	4
TAP	21	192	2
TAP	21	216	3
TAP	21	240	2
TAP	21	288	1
TAP	21	288	4
TAP	22	0	2
TAP	22	0	7
TAP	22	48	1
TAP	22	72	0
TAP	22	96	1
TAP	22	144	3
TAP	22	144	6
TAP	22	192	5
TAP	22	216	4
TAP	22	240	5
TAP	22	288	3
TAP	22	288	6
TAP	23	0	2
TAP	23	0	5
TAP	23	48	4
TAP	23	72	3
TAP	23	96	4
TAP	23	144	2
TAP	23	144	5
TAP	23	192	3
TAP	23	216	4
TAP	23	240	3
TAP	23	288	1
TAP	23	288	6
TAP	23	336	2
TAP	23	336	5
TAP	24	48	5
TAP	24	96	2
TAP	24	144	6
TAP	24	168	7
TAP	24	192	0
TAP	24	216	1
TAP	24	240	2
TAP	24	264	3
TAP	24	288	7
TAP	24	312	6
TAP	24	336	5
TAP	24	360	4
TAP	25	0	3
HLD	25	96	2	96
TAP	25	168	3
HLD	25	192	3	144
TAP	25	240	2
TAP	25	288	1
TAP	25	336	0
HLD	26	96	5	96
TAP	26	168	4
HLD	26	192	4	144
TAP	26	240	5
TAP	26	288	6
TAP	26	336	7
HLD	27	96	0	96
TAP	27	168	7
HLD	27	192	7	144
TAP	27	240	0
TAP	27	288	1
TAP	27	336	2
TAP	28	48	2
TAP	28	48	5
TAP	28	96	3
TAP	28	120	4
TAP	28	144	3
TAP	28	192	2
TAP	28	192	5
TAP	28	240	2
TAP	28	240	5
TAP	28	288	1
TAP	28	288	6
HLD	29	0	2	72
TAP	29	72	3
TAP	29	96	1
HLD	29	144	5	72
TAP	29	216	4
TAP	29	240	6
TAP	29	288	2
TAP	29	336	1
TAP	29	336	3
HLD	30	0	6	72
TAP	30	72	7
TAP	30	96	5
HLD	30	144	1	72
TAP	30	216	0
TAP	30	240	2
TAP	30	288	6
TAP	30	336	5
TAP	30	336	7
HLD	31	0	2	72
TAP	31	72	5
TAP	31	96	1
HLD	31	144	6	72
TAP	31	216	1
TAP	31	240	7
TAP	31	288	0
STR	31	336	7
SCL	31	336	7	96	48	4
STR	32	48	7
SCR	32	48	7	96	48	2
STR	32	144	7
SI_	32	144	7	96	48	3
BRK	32	240	7
HLD	33	0	0	192
HLD	33	0	1	192
HLD	33	240	0	144
TAP	33	240	2
TAP	33	288	3
HLD	33	336	4	336
TAP	34	48	7
TAP	34	96	6
HLD	34	144	5	144
HLD	35	0	2	192
HLD	35	0	3	192
HLD	35	240	2	144
TAP	35	240	4
TAP	35	288	5
HLD	35	336	6	336
TAP	36	48	1
TAP	36	96	0
HLD	36	144	7	96
TAP	36	288	7
TAP	36	336	6
TAP	37	0	7
TAP	37	64	6
TAP	37	128	0
TAP	37	128	5
TAP	37	192	2
TAP	37	256	3
TAP	37	320	1
TAP	37	320	4
TAP	38	0	0
TAP	38	64	1
TAP	38	128	2
TAP	38	128	7
TAP	38	192	5
TAP	38	256	4
TAP	38	320	3
TAP	38	320	6
TAP	39	0	7
TAP	39	24	6
TAP	39	48	5
TAP	39	72	4
TAP	39	96	0
TAP	39	120	1
TAP	39	144	2
TAP	39	168	3
TAP	39	192	7
TAP	39	216	6
TAP	39	240	5
TAP	39	264	4
TAP	39	288	3
TAP	39	312	2
TAP	39	336	1
BRK	40	192	0
BRK	40	192	5
BRK	40	288	2
BRK	40	288	7
TAP	41	96	6
STR	41	144	1
SI_	41	144	1	96	48	4
STR	41	192	4
SI_	41	192	4	96	48	1
STR	41	240	1
SCL	41	240	1	96	96	4
TAP	41	288	6
HLD	41	336	6	144
TAP	42	96	1
TAP	42	192	1
TAP	42	192	4
STR	42	288	6
SUL	42	288	6	96	48	2
HLD	42	336	6	144
STR	43	96	1
SUR	43	96	1	96	48	5
HLD	43	144	1	144
STR	43	288	6
SXL	43	288	6	96	144	1
HLD	43	336	6	240
TAP	44	192	2
TAP	44	240	6
TAP	44	288	3
TAP	44	336	5
STR	45	0	4
SXL	45	0	4	96	48	6
SXR	45	0	4	96	48	2
TAP	45	192	3
TAP	45	240	5
STR	45	336	3
SUL	45	336	3	96	48	7
STR	45	336	7
SUL	45	336	7	96	48	3
TAP	46	48	3
TAP	46	48	7
STR	46	144	3
SCR	46	144	3	96	96	7
STR	46	144	7
SCR	46	144	7	96	96	3
STR	46	240	3
SXR	46	240	3	96	240	7
STR	46	240	7
SXR	46	240	7	96	240	3
STR	47	288	1
SLR	47	288	1	96	96	5
STR	47	288	5
SLR	47	288	5	96	96	1
TAP	48	0	1
TAP	48	0	5
TAP	48	192	0
TAP	48	192	4
TAP	48	240	3
TAP	48	240	7
TAP	48	288	2
TAP	48	288	6
TAP	48	336	1
TAP	48	336	5
BRK	49	0	0
BRK	49	0	4
TAP	49	96	1
STR	49	144	6
SI_	49	144	6	96	48	3
STR	49	192	3
SI_	49	192	3	96	48	6
STR	49	240	6
SCR	49	240	6	96	96	3
TAP	49	288	1
HLD	49	336	1	144
TAP	50	96	6
TAP	50	192	3
TAP	50	192	4
TAP	50	288	1
TAP	50	288	6
STR	51	0	0
SV_	51	0	0	96	48	5
HLD	51	0	7	96
TAP	51	144	6
HLD	51	192	6	96
STR	51	192	7
SV_	51	192	7	96	48	4
TAP	51	336	5
HLD	52	0	5	96
STR	52	0	6
SV_	52	0	6	96	48	3
TAP	52	144	4
HLD	52	192	4	96
STR	52	192	5
SV_	52	192	5	96	48	2
STR	52	336	3
SXL	52	336	3	96	144	7
SXR	52	336	3	96	144	7
TAP	53	0	3
TAP	53	288	0
TAP	53	288	4
TAP	53	336	2
TAP	53	336	6
TAP	54	48	3
TAP	54	48	7
HLD	54	96	1	96
HLD	54	96	5	96
TAP	54	288	7
TAP	55	0	0
TAP	55	0	6
TAP	55	64	1
TAP	55	64	5
TAP	55	128	2
TAP	55	128	4
TAP	55	192	3
TAP	55	256	2
TAP	55	256	4
TAP	55	320	1
TAP	55	320	5
BRK	56	0	0
BST	56	0	6
SUL	56	0	6	96	96	4
TAP	56	144	0
TAP	56	168	1
TAP	56	192	2
TAP	57	0	2
TAP	57	48	1
TAP	57	48	3
TAP	57	144	5
TAP	57	192	4
TAP	57	192	6
TAP	57	288	1
TAP	57	336	0
TAP	57	336	2
TAP	58	48	6
TAP	58	96	5
TAP	58	96	7
TAP	58	192	2
TAP	58	216	3
TAP	58	240	2
TAP	58	264	3
BRK	58	288	0
TAP	59	0	5
TAP	59	48	4
TAP	59	48	6
TAP	59	144	2
TAP	59	192	1
TAP	59	192	3
TAP	59	288	6
TAP	59	336	5
TAP	59	336	7
TAP	60	48	1
TAP	60	96	0
TAP	60	96	2
TAP	60	192	3
TAP	60	216	4
TAP	60	240	3
TAP	60	264	4
TAP	60	288	2
TAP	60	312	5
TAP	60	336	2
TAP	60	360	5
TAP	61	0	3
TAP	61	48	2
TAP	61	48	4
TAP	61	144	4
TAP	61	192	3
TAP	61	192	5
TAP	61	288	0
TAP	61	336	1
TAP	61	336	7
TAP	62	48	0
TAP	62	48	7
STR	62	96	1
SXR	62	96	1	96	144	3
STR	62	96	6
SXL	62	96	6	96	144	4
TAP	62	192	1
TAP	62	192	6
TAP	63	0	4
TAP	63	48	3
TAP	63	48	5
TAP	63	144	0
TAP	63	192	1
TAP	63	192	7
TAP	63	288	3
TAP	63	336	2
TAP	63	336	4
TAP	64	48	2
TAP	64	48	3
TAP	64	96	2
TAP	64	96	3
TAP	64	144	1
TAP	64	144	4
TAP	64	192	1
TAP	64	192	4
TAP	64	240	0
TAP	64	240	5
TAP	64	288	0
TAP	64	288	5
TAP	64	336	6
TAP	64	336	7
HLD	65	0	6	192
HLD	65	0	7	192
TAP	65	240	0
HLD	65	240	6	144
TAP	65	288	1
HLD	65	336	2	336
TAP	66	48	5
TAP	66	96	4
HLD	66	144	3	144
HLD	67	0	4	192
HLD	67	0	5	192
HLD	67	240	4	144
TAP	67	240	6
TAP	67	288	7
HLD	67	336	0	336
TAP	68	48	3
TAP	68	96	2
HLD	68	144	1	96
TAP	68	288	1
TAP	68	336	0
TAP	69	0	1
TAP	69	0	7
TAP	69	64	3
TAP	69	64	6
TAP	69	128	1
TAP	69	128	7
TAP	69	192	0
TAP	69	192	6
TAP	69	256	1
TAP	69	256	4
TAP	69	320	0
TAP	69	320	6
TAP	70	0	2
TAP	70	0	7
TAP	70	64	4
TAP	70	64	6
TAP	70	128	2
TAP	70	128	7
TAP	70	192	0
TAP	70	192	6
TAP	70	256	1
TAP	70	256	3
TAP	70	320	0
TAP	70	320	6
TAP	71	0	7
TAP	71	24	6
TAP	71	48	5
TAP	71	72	4
TAP	71	96	0
TAP	71	120	1
TAP	71	144	2
TAP	71	168	3
TAP	71	192	7
TAP	71	216	6
TAP	71	240	5
TAP	71	264	4
TAP	71	288	3
TAP	71	312	2
TAP	71	336	1
BRK	72	192	7
BRK	72	288	0
TAP	73	96	0
TAP	73	144	7
TAP	73	192	1
TAP	73	240	6
TAP	73	336	2
TAP	74	0	4
TAP	74	48	3
TAP	74	96	5
TAP	74	144	2
TAP	74	192	6
TAP	74	240	1
STR	74	288	7
SI_	74	288	7	96	48	3
TAP	74	336	7
STR	75	96	0
SI_	75	96	0	96	72	4
TAP	75	144	0
TAP	75	288	3
STR	75	336	3
SXL	75	336	3	96	144	3
SXR	75	336	3	96	144	3
STR	77	0	6
SI_	77	0	6	96	96	3
TAP	77	96	6
STR	77	192	1
SI_	77	192	1	96	48	4
SI_	77	192	1	96	48	5
TAP	77	288	1
STR	78	0	7
SF_	78	0	7	96	48	3
TAP	78	96	7
STR	78	192	0
SI_	78	192	0	96	48	2
SI_	78	192	0	96	48	6
STR	78	288	0
SF_	78	288	0	96	192	4
TAP	79	0	0
STR	79	288	2
SXL	79	288	2	96	96	4
SXR	79	288	2	96	96	0
TAP	80	0	2
TAP	80	192	0
TAP	80	192	4
TAP	80	240	1
TAP	80	240	5
TAP	80	288	2
TAP	80	288	6
TAP	80	336	3
TAP	80	336	7
BRK	81	0	0
BRK	81	0	4
TAP	81	96	6
STR	81	144	1
SI_	81	144	1	96	48	4
STR	81	192	4
SI_	81	192	4	96	48	1
STR	81	240	1
SCL	81	240	1	96	96	4
TAP	81	288	6
HLD	81	336	6	144
TAP	82	96	1
TAP	82	192	3
TAP	82	192	4
TAP	82	288	1
TAP	82	288	6
HLD	83	0	0	96
STR	83	0	7
SV_	83	0	7	96	48	2
TAP	83	144	1
STR	83	192	0
SV_	83	192	0	96	48	3
HLD	83	192	1	96
TAP	83	336	2
STR	84	0	1
SV_	84	0	1	96	48	4
HLD	84	0	2	96
TAP	84	144	3
STR	84	192	2
SV_	84	192	2	96	48	5
HLD	84	192	3	96
STR	84	336	4
SXL	84	336	4	96	144	0
SXR	84	336	4	96	144	0
TAP	85	0	4
TAP	85	288	3
TAP	85	288	7
TAP	85	336	1
TAP	85	336	5
TAP	86	48	0
TAP	86	48	4
HLD	86	96	2	96
HLD	86	96	6	96
TAP	86	288	0
TAP	87	0	1
TAP	87	0	7
TAP	87	64	2
TAP	87	64	6
TAP	87	128	3
TAP	87	128	5
TAP	87	192	4
TAP	87	256	3
TAP	87	256	5
TAP	87	320	2
TAP	87	320	6
BST	88	0	1
SUR	88	0	1	96	96	3
BRK	88	0	7
TAP	88	144	7
TAP	88	168	6
TAP	88	192	5
TAP	89	0	3
TAP	89	0	4
TAP	89	48	2
TAP	89	48	5
TAP	89	96	2
TAP	89	120	3
TAP	89	168	5
TAP	89	192	4
TAP	89	240	3
TAP	89	264	4
TAP	89	288	3
TAP	89	336	2
TAP	89	336	5
STR	90	0	0
SCR	90	0	0	96	96	3
TAP	90	96	0
TAP	90	192	4
TAP	90	288	2
TAP	90	288	6
TAP	91	0	2
TAP	91	0	5
TAP	91	48	3
TAP	91	48	4
TAP	91	96	5
TAP	91	120	4
TAP	91	168	2
TAP	91	192	3
TAP	91	240	4
TAP	91	264	3
TAP	91	288	4
TAP	91	336	2
TAP	91	336	5
STR	92	0	7
SCL	92	0	7	96	96	4
TAP	92	96	7
TAP	92	192	3
TAP	92	288	1
TAP	92	288	5
TAP	93	0	0
TAP	93	0	7
TAP	93	48	1
TAP	93	48	6
TAP	93	96	1
TAP	93	120	0
TAP	93	168	6
TAP	93	192	7
TAP	93	240	0
TAP	93	264	7
TAP	93	288	0
TAP	93	336	2
TAP	93	336	5
STR	94	0	0
SXL	94	0	0	96	144	3
STR	94	0	7
SXR	94	0	7	96	144	4
TAP	94	96	0
TAP	94	96	7
TAP	94	288	1
TAP	94	288	6
TAP	95	0	2
TAP	95	0	5
TAP	95	96	6
TAP	95	120	5
TAP	95	144	4
TAP	95	168	3
TAP	95	192	0
TAP	95	216	1
TAP	95	240	2
TAP	95	264	3
TAP	95	288	7
TAP	95	312	6
TAP	95	336	5
TAP	95	360	4
TAP	96	0	1
TAP	96	0	3
TAP	96	72	4
TAP	96	72	6
TAP	96	144	0
TAP	96	144	7
TAP	96	240	3
TAP	96	240	4
BRK	96	288	1
BRK	96	288	6
TAP	97	0	0
TAP	97	0	5
TAP	97	48	1
TAP	97	48	4
TAP	97	96	2
TAP	97	120	3
TAP	97	168	5
TAP	97	192	4
TAP	97	240	2
TAP	97	264	4
TAP	97	288	2
TAP	97	336	1
TAP	97	336	5
TAP	98	0	6
TAP	98	24	5
TAP	98	48	4
TAP	98	72	3
TAP	98	96	7
TAP	98	120	6
TAP	98	144	5
TAP	98	168	4
TAP	98	192	0
TAP	98	216	7
TAP	98	240	6
TAP	98	264	5
TAP	98	288	4
TAP	99	0	2
TAP	99	0	7
TAP	99	48	3
TAP	99	48	6
TAP	99	96	5
TAP	99	120	4
TAP	99	168	2
TAP	99	192	3
TAP	99	240	5
TAP	99	264	3
TAP	99	288	5
TAP	99	336	2
TAP	99	336	6
TAP	100	0	1
TAP	100	24	2
TAP	100	48	3
TAP	100	72	4
TAP	100	96	0
TAP	100	120	1
TAP	100	144	2
TAP	100	168	3
TAP	100	192	7
TAP	100	216	0
TAP	100	240	1
TAP	100	264	2
TAP	100	288	3
TAP	101	0	3
TAP	101	0	4
TAP	101	48	2
TAP	101	48	5
TAP	101	96	1
TAP	101	120	0
TAP	101	168	6
TAP	101	192	7
TAP	101	240	1
TAP	101	264	6
TAP	101	288	1
TAP	101	336	0
TAP	101	336	7
TAP	102	0	6
TAP	102	24	5
TAP	102	48	4
TAP	102	72	3
TAP	102	96	1
TAP	102	120	2
TAP	102	144	3
TAP	102	168	4
TAP	102	192	7
TAP	102	216	6
TAP	102	240	5
TAP	102	264	4
TAP	102	288	0
TAP	102	312	1
TAP	102	336	2
TAP	102	360	3
BRK	103	0	4
TAP	103	96	4
TAP	103	120	5
TAP	103	144	6
TAP	103	168	7
TAP	103	192	3
TAP	103	216	2
TAP	103	240	1
TAP	103	264	0
TAP	103	288	7
TAP	103	312	6
TAP	103	336	5
TAP	103	360	4
HLD	104	0	3	96
HLD	104	192	2	96
HLD	104	192	4	96
HLD	105	96	1	672
HLD	105	96	5	672

T_REC_TAP	624
T_REC_BRK	21
T_REC_XTP	0
T_REC_HLD	66
T_REC_XHO	0
T_REC_STR	61
T_REC_BST	2
T_REC_XST	0
T_REC_TTP	0
T_REC_THO	0
T_REC_SLD	70
T_REC_ALL	844
T_NUM_TAP	685
T_NUM_BRK	23
T_NUM_HLD	66
T_NUM_SLD	70
T_NUM_ALL	844
T_JUDGE_TAP	708
T_JUDGE_HLD	222
T_JUDGE_SLD	70
T_JUDGE_ALL	1000
TTM_EACHPAIRS	168
TTM_SCR_TAP	342500
TTM_SCR_BRK	59800
TTM_SCR_HLD	66000
TTM_SCR_SLD	105000
TTM_SCR_ALL	573300
TTM_SCR_S	553900
TTM_SCR_SS	571000
TTM_RAT_ACV	10040

