VERSION	0.00.00	1.03.00
FES_MODE	0
BPM_DEF	175.000	175.000	175.000	175.000
MET_DEF	4	4
RESOLUTION	384
CLK_DEF	384
COMPATIBLE_CODE	MA2

BPM	0	0	175.000

HLD	1	0	2	288
TAP	1	96	3
TAP	1	288	3
HLD	2	0	5	288
TAP	2	96	4
TAP	2	288	4
HLD	3	0	2	288
TAP	3	96	3
TAP	3	288	3
HLD	4	0	5	288
TAP	4	96	4
TAP	4	288	4
TAP	5	0	2
TAP	5	96	2
TAP	5	192	5
TAP	5	288	5
TAP	6	0	1
TAP	6	96	1
TAP	6	192	6
TAP	6	288	6
TAP	7	0	0
TAP	7	0	1
TAP	7	96	0
TAP	7	96	1
TAP	7	192	6
TAP	7	192	7
TAP	7	288	6
TAP	7	288	7
HLD	8	0	4	96
HLD	8	0	6	96
HLD	8	192	1	96
HLD	8	192	3	96
TAP	9	0	1
TAP	9	96	0
TAP	9	96	1
TAP	9	192	6
TAP	9	288	6
STR	9	288	7
SI_	9	288	7	96	96	3
TAP	10	192	4
TAP	10	288	3
TAP	10	288	5
TAP	11	0	6
TAP	11	96	6
TAP	11	96	7
TAP	11	192	1
STR	11	288	0
SI_	11	288	0	96	96	4
TAP	11	288	1
TAP	12	192	3
TAP	12	288	2
TAP	12	288	4
TAP	13	0	1
TAP	13	96	0
TAP	13	96	1
TAP	13	192	6
TAP	13	288	6
STR	13	288	7
SI_	13	288	7	96	96	3
TAP	14	192	4
TAP	14	288	3
TAP	14	288	5
STR	15	0	0
SCL	15	0	0	96	192	5
SCR	15	0	0	96	192	3
HLD	16	0	1	96
HLD	16	0	6	96
BRK	16	192	0
BRK	16	192	7
BRK	16	240	0
BRK	16	240	7
HLD	17	0	2	384
HLD	18	0	3	384
HLD	19	0	4	384
HLD	20	0	5	192
TAP	20	192	2
HLD	21	0	6	144
HLD	21	144	7	144
TAP	21	288	0
HLD	22	0	1	144
HLD	22	144	0	144
TAP	22	288	7
HLD	23	0	6	144
HLD	23	144	7	144
TAP	23	288	0
STR	23	336	0
SCL	23	336	0	96	48	5
STR	24	192	0
SCR	24	192	0	96	48	3
TAP	25	0	6
TAP	25	96	5
TAP	25	96	7
TAP	25	192	1
TAP	25	288	0
TAP	25	288	2
TAP	26	0	5
TAP	26	96	4
TAP	26	96	6
TAP	26	192	2
TAP	26	288	1
TAP	26	288	3
TAP	27	0	3
TAP	27	0	4
TAP	27	96	3
TAP	27	96	4
TAP	27	192	1
TAP	27	192	6
TAP	27	240	1
TAP	27	240	6
HLD	27	336	0	144
HLD	27	336	7	144
TAP	28	192	2
TAP	28	192	7
TAP	28	288	0
TAP	28	288	5
TAP	29	0	6
TAP	29	96	5
TAP	29	96	7
TAP	29	192	0
TAP	29	240	6
TAP	29	288	0
TAP	30	0	1
TAP	30	96	0
TAP	30	96	2
TAP	30	192	7
TAP	30	240	1
TAP	30	288	7
TAP	31	0	3
TAP	31	0	4
TAP	31	96	3
TAP	31	96	4
TAP	31	192	1
TAP	31	192	6
TAP	31	240	1
TAP	31	240	6
TAP	31	336	1
TAP	31	336	5
TAP	32	48	2
TAP	32	48	6
TAP	32	144	0
TAP	32	144	5
TAP	32	240	2
TAP	32	240	7
TAP	33	0	6
HLD	33	0	7	240
TAP	33	240	5
STR	33	336	5
SXL	33	336	5	96	240	1
HLD	35	0	0	240
TAP	35	0	1
TAP	35	240	2
STR	35	336	2
SXR	35	336	2	96	240	6
TAP	37	0	5
TAP	37	64	4
TAP	37	128	5
TAP	37	192	2
TAP	37	256	3
TAP	37	320	2
TAP	38	0	5
TAP	38	64	4
TAP	38	128	5
TAP	38	192	2
TAP	38	256	3
TAP	38	320	2
HLD	39	0	1	96
HLD	39	0	6	96
TAP	39	192	1
TAP	39	192	6
TAP	39	288	0
TAP	39	288	7
STR	39	336	0
SI_	39	336	0	96	48	3
STR	39	336	7
SI_	39	336	7	96	48	4
BRK	40	192	0
BRK	40	192	2
BRK	40	288	5
BRK	40	288	7
TAP	41	0	1
TAP	41	0	6
TAP	41	96	2
TAP	41	144	3
TAP	41	192	2
TAP	41	240	1
TAP	41	240	4
HLD	41	336	0	144
TAP	42	96	6
HLD	42	192	6	96
TAP	42	288	1
STR	42	336	1
SI_	42	336	1	96	48	4
TAP	43	96	6
STR	43	144	6
SI_	43	144	6	96	48	3
TAP	43	288	0
STR	43	336	0
SI_	43	336	0	96	48	4
TAP	44	192	5
TAP	44	240	4
TAP	44	288	5
HLD	45	0	2	96
HLD	45	0	3	96
TAP	45	192	1
TAP	45	240	1
TAP	45	336	0
TAP	45	336	7
TAP	46	48	2
TAP	46	48	3
TAP	46	144	1
TAP	46	144	6
TAP	46	240	4
TAP	46	240	5
STR	46	336	0
SI_	46	336	0	96	48	3
STR	46	336	7
SI_	46	336	7	96	48	4
TAP	47	288	0
TAP	47	288	1
STR	48	0	6
SCL	48	0	6	96	96	3
STR	48	0	7
SCR	48	0	7	96	96	2
TAP	49	0	1
TAP	49	0	6
TAP	49	96	2
TAP	49	96	3
TAP	49	192	2
TAP	49	240	3
TAP	49	288	2
HLD	49	336	4	144
HLD	50	96	2	96
HLD	50	192	1	96
HLD	50	288	0	96
STR	51	0	7
SI_	51	0	7	96	48	2
STR	51	192	0
SI_	51	192	0	96	48	5
STR	52	0	6
SI_	52	0	6	96	48	2
STR	52	192	1
SI_	52	192	1	96	48	5
STR	53	0	7
SI_	53	0	7	96	48	3
TAP	53	192	0
TAP	53	288	5
TAP	53	288	7
TAP	53	336	5
TAP	53	336	7
TAP	54	48	0
TAP	54	48	2
TAP	54	96	0
TAP	54	96	2
TAP	54	192	7
TAP	54	288	3
TAP	54	288	4
HLD	55	0	0	96
HLD	55	0	5	96
HLD	55	192	1	96
HLD	55	192	4	96
HLD	56	0	2	192
HLD	56	0	3	192
BRK	56	288	1
BRK	56	288	4
TAP	57	0	4
TAP	57	48	4
TAP	57	144	5
TAP	57	192	5
TAP	57	288	6
TAP	57	336	6
TAP	58	48	7
STR	58	96	7
SCR	58	96	7	96	96	2
TAP	59	0	3
TAP	59	48	3
TAP	59	144	2
TAP	59	192	2
TAP	59	288	1
TAP	59	336	1
TAP	60	48	0
STR	60	96	0
SLL	60	96	0	96	96	4
TAP	61	0	4
TAP	61	48	4
TAP	61	144	5
TAP	61	192	5
TAP	61	288	6
TAP	61	336	6
TAP	62	48	7
STR	62	96	7
SUR	62	96	7	96	96	3
TAP	63	0	3
TAP	63	48	3
TAP	63	144	2
TAP	63	192	2
TAP	63	288	1
TAP	63	336	1
TAP	64	48	0
STR	64	96	0
SCL	64	96	0	96	96	5
TAP	65	0	2
HLD	65	0	7	240
TAP	65	240	1
STR	65	336	1
SXR	65	336	1	96	240	5
HLD	67	0	0	240
TAP	67	0	5
TAP	67	240	6
STR	67	336	6
SXR	67	336	6	96	240	2
TAP	69	0	2
TAP	69	64	3
TAP	69	128	2
TAP	69	192	5
TAP	69	256	4
TAP	69	320	5
TAP	70	0	1
TAP	70	64	2
TAP	70	128	1
TAP	70	192	6
TAP	70	256	5
TAP	70	320	6
HLD	71	0	2	96
HLD	71	0	5	96
TAP	71	192	2
TAP	71	192	5
TAP	71	288	0
TAP	71	288	7
STR	71	336	0
SI_	71	336	0	96	48	4
STR	71	336	7
SI_	71	336	7	96	48	3
TAP	72	192	2
TAP	72	192	4
TAP	72	288	3
TAP	72	288	5
HLD	73	0	2	384
TAP	73	192	3
HLD	74	0	3	384
TAP	74	192	5
HLD	75	0	5	192
HLD	75	192	4	192
HLD	76	0	3	192
TAP	76	192	4
TAP	77	0	3
TAP	77	96	3
TAP	77	192	2
TAP	77	288	2
TAP	78	0	1
TAP	78	96	1
TAP	78	192	0
TAP	78	288	0
TAP	79	0	0
TAP	79	0	2
TAP	79	96	0
TAP	79	96	2
TAP	79	192	1
TAP	79	192	3
TAP	79	288	1
TAP	79	288	3
HLD	80	0	6	96
HLD	80	0	7	96
TAP	80	192	0
TAP	80	192	5
TAP	81	0	1
TAP	81	0	6
TAP	81	96	3
TAP	81	96	6
TAP	81	192	5
TAP	81	240	4
TAP	81	288	5
HLD	81	336	3	144
HLD	82	96	5	96
HLD	82	192	6	96
HLD	82	288	7	96
STR	83	0	0
SI_	83	0	0	96	48	5
STR	83	192	7
SI_	83	192	7	96	48	2
STR	84	0	1
SI_	84	0	1	96	48	5
STR	84	192	6
SI_	84	192	6	96	48	2
STR	85	0	0
SI_	85	0	0	96	48	4
TAP	85	192	7
TAP	85	288	1
TAP	85	288	3
TAP	85	336	1
TAP	85	336	3
TAP	86	48	4
TAP	86	48	6
TAP	86	96	4
TAP	86	96	6
TAP	86	192	7
TAP	86	288	3
TAP	86	288	4
HLD	87	0	2	96
HLD	87	0	5	96
HLD	87	192	1	96
HLD	87	192	6	96
HLD	88	0	0	192
HLD	88	0	7	192
BRK	88	288	1
BRK	88	288	6
TAP	89	0	5
TAP	89	96	4
TAP	89	96	6
TAP	89	192	2
TAP	89	288	1
STR	89	288	3
SCR	89	288	3	96	96	6
TAP	90	192	6
TAP	90	192	7
TAP	90	288	0
TAP	90	288	5
TAP	91	0	2
TAP	91	96	1
TAP	91	96	3
TAP	91	192	5
STR	91	288	4
SCL	91	288	4	96	96	1
TAP	91	288	6
TAP	92	192	0
TAP	92	192	1
TAP	92	288	2
TAP	92	288	7
TAP	93	0	5
TAP	93	96	4
TAP	93	96	6
TAP	93	192	2
TAP	93	288	1
STR	93	288	3
SCR	93	288	3	96	96	6
TAP	94	192	6
TAP	94	192	7
TAP	94	288	0
TAP	94	288	5
HLD	95	0	3	96
HLD	95	0	4	96
TAP	95	192	2
TAP	95	192	5
TAP	95	288	1
TAP	95	288	6
TAP	96	0	0
TAP	96	0	7
TAP	96	72	0
TAP	96	72	7
HLD	96	144	2	144
HLD	96	144	5	144
TAP	97	0	6
TAP	97	96	4
TAP	97	96	5
TAP	97	192	1
STR	97	288	2
SCL	97	288	2	96	96	7
STR	97	288	3
SCR	97	288	3	96	96	6
TAP	98	192	0
TAP	98	192	1
TAP	98	288	2
TAP	98	288	7
TAP	99	0	1
TAP	99	96	2
TAP	99	96	3
TAP	99	192	6
STR	99	288	4
SCL	99	288	4	96	96	1
STR	99	288	5
SCR	99	288	5	96	96	0
TAP	100	192	6
TAP	100	192	7
TAP	100	288	0
TAP	100	288	5
TAP	101	0	2
TAP	101	96	0
TAP	101	96	7
TAP	101	192	5
STR	101	288	0
SXL	101	288	0	96	288	3
STR	101	288	7
SXR	101	288	7	96	288	4
STR	103	0	4
SCL	103	0	4	96	192	1
SCR	103	0	4	96	192	7
HLD	104	0	0	96
HLD	104	0	2	96
HLD	104	192	5	96
HLD	104	192	7	96
STR	105	96	4
SCR	105	96	4	96	672	3

T_REC_TAP	316
T_REC_BRK	12
T_REC_XTP	0
T_REC_HLD	69
T_REC_XHO	0
T_REC_STR	46
T_REC_BST	0
T_REC_XST	0
T_REC_TTP	0
T_REC_THO	0
T_REC_SLD	48
T_REC_ALL	491
T_NUM_TAP	362
T_NUM_BRK	12
T_NUM_HLD	69
T_NUM_SLD	48
T_NUM_ALL	491
T_JUDGE_TAP	374
T_JUDGE_HLD	225
T_JUDGE_SLD	48
T_JUDGE_ALL	647
TTM_EACHPAIRS	123
TTM_SCR_TAP	181000
TTM_SCR_BRK	31200
TTM_SCR_HLD	69000
TTM_SCR_SLD	72000
TTM_SCR_ALL	353200
TTM_SCR_S	341450
TTM_SCR_SS	352000
TTM_RAT_ACV	10034

