VERSION	0.00.00	1.03.00
FES_MODE	0
BPM_DEF	175.000	175.000	175.000	175.000
MET_DEF	4	4
RESOLUTION	384
CLK_DEF	384
COMPATIBLE_CODE	MA2

BPM	0	0	175.000

TAP	1	0	2
TAP	1	0	3
TAP	2	0	1
TAP	2	0	2
TAP	3	0	0
TAP	3	0	1
TAP	4	0	0
TAP	4	0	7
TAP	5	0	6
TAP	5	0	7
TAP	5	192	6
TAP	6	0	5
TAP	6	0	6
TAP	6	192	5
TAP	7	0	4
TAP	7	0	5
TAP	7	192	4
STR	8	0	3
SI_	8	0	3	96	192	0
STR	8	0	4
SI_	8	0	4	96	192	7
BRK	9	0	1
BRK	9	0	6
TAP	9	96	6
TAP	9	192	5
TAP	9	288	5
TAP	10	0	4
TAP	10	96	4
TAP	10	192	3
TAP	10	192	5
TAP	11	0	1
TAP	11	96	1
TAP	11	192	2
TAP	11	288	2
TAP	12	0	3
TAP	12	96	3
TAP	12	192	2
TAP	12	192	4
TAP	13	0	2
TAP	13	96	2
TAP	13	192	5
TAP	13	288	5
TAP	14	0	3
TAP	14	0	4
TAP	14	96	3
TAP	14	96	4
TAP	14	192	2
TAP	14	192	5
TAP	15	0	2
TAP	15	0	5
TAP	15	96	1
TAP	15	96	6
TAP	15	192	0
TAP	15	192	7
TAP	15	288	0
TAP	15	288	7
HLD	16	0	1	96
HLD	16	0	6	96
BRK	16	192	1
BRK	16	192	6
HLD	17	0	1	192
HLD	18	0	0	192
HLD	19	0	7	192
HLD	20	0	6	192
TAP	21	0	5
TAP	21	96	4
TAP	21	192	3
TAP	21	192	6
TAP	22	0	2
TAP	22	96	3
TAP	22	192	1
TAP	22	192	4
TAP	23	0	4
TAP	23	96	4
TAP	23	192	3
TAP	23	288	3
TAP	24	0	2
TAP	24	0	5
TAP	24	96	1
TAP	24	96	6
TAP	24	192	0
TAP	24	192	7
HLD	25	0	1	192
TAP	25	192	0
HLD	26	0	6	192
TAP	26	192	7
HLD	27	0	0	192
TAP	27	192	7
HLD	28	0	7	192
TAP	28	192	0
TAP	29	0	1
TAP	29	96	0
TAP	29	192	2
TAP	29	192	7
TAP	30	0	6
TAP	30	96	7
TAP	30	192	0
TAP	30	192	5
TAP	31	0	0
TAP	31	96	0
TAP	31	192	7
TAP	31	288	7
TAP	32	0	1
TAP	32	0	6
TAP	32	96	2
TAP	32	96	5
TAP	32	192	3
TAP	32	192	4
HLD	33	0	2	192
HLD	33	192	3	192
HLD	34	0	4	192
TAP	34	192	5
HLD	35	0	5	192
HLD	35	192	4	192
HLD	36	0	3	192
TAP	36	192	2
TAP	37	0	6
TAP	37	0	7
TAP	37	192	0
TAP	37	192	1
TAP	38	0	2
TAP	38	0	3
TAP	38	192	4
TAP	38	192	5
TAP	39	0	3
TAP	39	96	2
TAP	39	192	1
TAP	39	288	0
TAP	40	0	0
TAP	40	0	7
TAP	40	96	0
TAP	40	96	7
BRK	40	192	1
BRK	40	192	6
TAP	41	0	2
TAP	41	96	2
TAP	41	96	3
TAP	41	192	5
TAP	41	288	4
TAP	41	288	5
TAP	42	0	6
TAP	42	96	5
TAP	42	96	7
TAP	42	192	0
TAP	42	192	4
TAP	43	0	5
TAP	43	96	4
TAP	43	96	5
TAP	43	192	2
TAP	43	288	2
TAP	43	288	3
TAP	44	0	1
TAP	44	96	0
TAP	44	96	2
TAP	44	192	3
TAP	44	192	7
TAP	45	0	3
TAP	45	96	2
TAP	45	192	1
TAP	45	192	3
TAP	46	0	4
TAP	46	96	5
TAP	46	192	4
TAP	46	192	6
TAP	47	0	3
TAP	47	96	2
TAP	47	96	4
TAP	47	192	5
TAP	47	288	4
TAP	47	288	6
TAP	48	0	3
TAP	48	96	2
TAP	48	96	4
TAP	48	192	1
TAP	48	192	5
TAP	49	0	5
TAP	49	96	4
TAP	49	96	5
TAP	49	192	2
TAP	49	288	2
TAP	49	288	3
TAP	50	0	1
TAP	50	96	0
TAP	50	96	2
TAP	50	192	3
TAP	50	192	7
TAP	51	0	2
TAP	51	96	2
TAP	51	96	3
TAP	51	192	5
TAP	51	288	4
TAP	51	288	5
TAP	52	0	6
TAP	52	96	5
TAP	52	96	7
TAP	52	192	0
TAP	52	192	4
TAP	53	0	4
TAP	53	96	5
TAP	53	192	4
TAP	53	192	6
TAP	54	0	3
TAP	54	96	2
TAP	54	192	1
TAP	54	192	3
TAP	55	0	4
TAP	55	96	3
TAP	55	96	5
TAP	55	192	2
TAP	55	288	1
TAP	55	288	3
TAP	56	0	4
TAP	56	96	3
TAP	56	96	5
TAP	56	192	2
TAP	56	192	6
STR	57	0	7
SI_	57	0	7	96	384	2
TAP	58	192	0
TAP	58	288	0
STR	59	0	0
SI_	59	0	0	96	384	5
TAP	60	192	6
TAP	60	288	6
STR	61	0	6
SI_	61	0	6	96	384	3
TAP	62	192	1
TAP	62	288	1
STR	63	0	1
SI_	63	0	1	96	384	4
TAP	64	192	6
TAP	64	288	6
HLD	65	0	6	192
HLD	65	192	7	192
HLD	66	0	0	192
TAP	66	192	1
HLD	67	0	1	192
HLD	67	192	0	192
HLD	68	0	7	192
TAP	68	192	6
TAP	69	0	0
TAP	69	0	7
TAP	69	192	1
TAP	69	192	2
TAP	70	0	3
TAP	70	0	4
TAP	70	192	5
TAP	70	192	6
TAP	71	0	4
TAP	71	96	5
TAP	71	192	6
TAP	71	288	7
TAP	72	0	0
TAP	72	0	7
TAP	72	96	0
TAP	72	96	7
BRK	72	192	1
BRK	72	192	6
STR	73	0	7
SXR	73	0	7	96	480	4
STR	75	0	3
SXR	75	0	3	96	480	0
TAP	77	0	1
TAP	77	96	0
TAP	77	96	1
TAP	77	192	6
TAP	77	288	6
TAP	77	288	7
TAP	78	0	5
TAP	78	96	4
TAP	78	96	5
TAP	78	192	2
TAP	78	288	2
TAP	78	288	3
TAP	79	0	4
TAP	79	96	3
TAP	79	96	5
TAP	79	192	3
TAP	79	288	2
TAP	79	288	4
TAP	80	0	3
TAP	80	0	4
TAP	80	96	2
TAP	80	96	5
TAP	80	192	1
TAP	80	192	6
TAP	81	0	6
TAP	81	96	6
TAP	81	96	7
TAP	81	192	1
TAP	81	288	0
TAP	81	288	1
TAP	82	0	2
TAP	82	96	1
TAP	82	96	3
TAP	82	192	0
TAP	82	192	4
TAP	83	0	1
TAP	83	96	0
TAP	83	96	1
TAP	83	192	6
TAP	83	288	6
TAP	83	288	7
TAP	84	0	5
TAP	84	96	4
TAP	84	96	6
TAP	84	192	3
TAP	84	192	7
TAP	85	0	7
TAP	85	96	6
TAP	85	192	5
TAP	85	192	7
TAP	86	0	0
TAP	86	96	1
TAP	86	192	0
TAP	86	192	2
TAP	87	0	7
TAP	87	96	0
TAP	87	96	6
TAP	87	192	1
TAP	87	288	0
TAP	87	288	2
TAP	88	0	7
TAP	88	96	0
TAP	88	96	6
TAP	88	192	1
TAP	88	192	5
BRK	89	0	2
BRK	89	0	5
TAP	89	96	2
TAP	89	192	1
TAP	89	288	1
TAP	90	0	0
TAP	90	96	0
TAP	90	192	1
TAP	90	192	7
TAP	91	0	5
TAP	91	96	5
TAP	91	192	6
TAP	91	288	6
TAP	92	0	7
TAP	92	96	7
TAP	92	192	0
TAP	92	192	6
TAP	93	0	1
TAP	93	96	1
TAP	93	192	6
TAP	93	288	6
TAP	94	0	0
TAP	94	0	7
TAP	94	96	0
TAP	94	96	7
TAP	94	192	1
TAP	94	192	6
TAP	95	0	1
TAP	95	0	6
TAP	95	96	2
TAP	95	96	5
TAP	95	192	3
TAP	95	192	4
TAP	95	288	3
TAP	95	288	4
HLD	96	0	2	96
HLD	96	0	5	96
BRK	96	192	2
BRK	96	192	5
TAP	97	0	6
TAP	97	96	6
TAP	97	192	7
TAP	97	288	7
TAP	98	0	0
TAP	98	96	0
TAP	98	192	1
TAP	98	192	7
TAP	99	0	1
TAP	99	96	1
TAP	99	192	0
TAP	99	288	0
TAP	100	0	7
TAP	100	96	7
TAP	100	192	0
TAP	100	192	6
TAP	101	0	1
TAP	101	96	1
TAP	101	192	6
TAP	101	288	6
TAP	102	0	0
TAP	102	0	7
TAP	102	96	0
TAP	102	96	7
TAP	102	192	1
TAP	102	192	6
TAP	103	0	1
TAP	103	0	6
TAP	103	96	2
TAP	103	96	5
TAP	103	192	3
TAP	103	192	4
TAP	103	288	3
TAP	103	288	4
HLD	104	0	2	96
HLD	104	0	5	96
HLD	104	192	1	96
HLD	104	192	6	96
HLD	105	96	0	672
HLD	105	96	7	672

T_REC_TAP	348
T_REC_BRK	12
T_REC_XTP	0
T_REC_HLD	30
T_REC_XHO	0
T_REC_STR	8
T_REC_BST	0
T_REC_XST	0
T_REC_TTP	0
T_REC_THO	0
T_REC_SLD	8
T_REC_ALL	406
T_NUM_TAP	356
T_NUM_BRK	12
T_NUM_HLD	30
T_NUM_SLD	8
T_NUM_ALL	406
T_JUDGE_TAP	368
T_JUDGE_HLD	124
T_JUDGE_SLD	8
T_JUDGE_ALL	500
TTM_EACHPAIRS	119
TTM_SCR_TAP	178000
TTM_SCR_BRK	31200
TTM_SCR_HLD	30000
TTM_SCR_SLD	12000
TTM_SCR_ALL	251200
TTM_SCR_S	242500
TTM_SCR_SS	250000
TTM_RAT_ACV	10048

