VERSION	0.00.00	1.03.00
FES_MODE	0
BPM_DEF	175.000	175.000	175.000	175.000
MET_DEF	4	4
RESOLUTION	384
CLK_DEF	384
COMPATIBLE_CODE	MA2

BPM	0	0	175.000

TAP	5	0	4
TAP	5	192	4
TAP	6	0	5
TAP	6	192	5
TAP	7	0	6
TAP	7	192	6
HLD	8	0	0	192
HLD	8	0	7	192
TAP	9	0	7
TAP	9	96	7
TAP	9	192	7
TAP	10	0	6
TAP	10	96	6
TAP	10	192	6
TAP	11	0	5
TAP	11	96	5
TAP	11	192	5
HLD	12	0	3	192
HLD	12	0	4	192
TAP	13	0	3
TAP	13	96	3
TAP	13	192	3
TAP	14	0	2
TAP	14	96	2
TAP	14	192	2
TAP	15	0	1
TAP	15	96	1
TAP	15	192	1
HLD	16	0	0	192
HLD	16	0	7	192
STR	17	0	0
SI_	17	0	0	96	288	3
STR	19	0	7
SI_	19	0	7	96	288	4
TAP	21	0	0
TAP	21	192	0
TAP	21	192	1
TAP	22	0	7
TAP	22	192	6
TAP	22	192	7
HLD	23	0	1	192
HLD	23	0	6	192
TAP	24	0	0
TAP	24	96	0
TAP	24	192	7
TAP	24	288	7
TAP	25	0	0
TAP	25	96	0
TAP	25	192	1
TAP	26	0	1
TAP	26	96	1
TAP	26	192	2
TAP	27	0	2
TAP	27	96	2
TAP	27	192	3
TAP	28	0	3
TAP	28	96	3
TAP	28	192	3
TAP	28	192	4
TAP	29	0	4
TAP	29	0	5
TAP	29	192	4
TAP	29	192	5
TAP	30	0	2
TAP	30	0	3
TAP	30	192	2
TAP	30	192	3
TAP	31	0	4
TAP	31	96	4
TAP	31	192	3
TAP	31	192	5
TAP	32	0	3
TAP	32	96	3
TAP	32	192	2
TAP	32	192	4
HLD	33	0	4	192
HLD	34	0	3	192
HLD	35	0	5	192
HLD	36	0	2	192
HLD	37	0	1	192
HLD	37	0	3	192
HLD	38	0	2	192
HLD	38	0	4	192
HLD	39	0	3	192
HLD	39	0	5	192
TAP	40	0	4
TAP	40	0	6
BRK	40	192	7
TAP	40	288	7
TAP	41	0	0
TAP	41	96	0
TAP	41	192	1
TAP	41	288	1
TAP	42	0	2
TAP	42	96	2
TAP	42	192	3
TAP	42	288	3
TAP	43	0	4
TAP	43	96	4
TAP	43	192	5
TAP	43	288	5
TAP	44	0	6
TAP	44	0	7
TAP	44	192	0
TAP	44	192	7
TAP	45	0	6
TAP	45	192	5
TAP	46	0	4
TAP	46	192	3
TAP	47	0	2
TAP	47	192	1
HLD	48	0	0	192
HLD	48	0	1	192
TAP	49	0	7
TAP	49	96	7
TAP	49	192	6
TAP	49	288	6
TAP	50	0	5
TAP	50	96	5
TAP	50	192	4
TAP	50	288	4
TAP	51	0	3
TAP	51	96	3
TAP	51	192	2
TAP	51	288	2
TAP	52	0	0
TAP	52	0	1
TAP	52	96	0
TAP	52	96	1
TAP	52	192	0
TAP	52	192	1
TAP	53	0	1
TAP	53	192	2
TAP	54	0	3
TAP	54	192	4
HLD	55	0	4	192
HLD	55	0	5	192
HLD	56	0	2	192
HLD	56	0	3	192
TAP	57	0	4
TAP	57	192	4
TAP	58	0	5
TAP	58	192	4
TAP	58	192	5
TAP	59	0	6
TAP	59	192	6
TAP	60	0	7
TAP	60	192	0
TAP	60	192	7
TAP	61	0	0
TAP	61	192	0
TAP	62	0	1
TAP	62	192	0
TAP	62	192	1
TAP	63	0	2
TAP	63	192	2
TAP	64	0	3
TAP	64	192	3
TAP	64	192	4
HLD	65	0	4	192
HLD	66	0	3	192
HLD	67	0	4	192
HLD	67	0	5	192
HLD	68	0	2	192
HLD	68	0	3	192
TAP	69	0	2
TAP	69	0	3
TAP	69	192	3
TAP	69	192	4
TAP	70	0	4
TAP	70	0	5
TAP	70	192	3
TAP	70	192	4
TAP	71	0	2
TAP	71	96	3
TAP	71	192	4
TAP	71	288	5
TAP	72	0	3
TAP	72	0	4
BRK	72	192	3
TAP	72	288	3
STR	73	0	3
SI_	73	0	3	96	288	0
STR	75	0	4
SI_	75	0	4	96	288	7
TAP	77	0	3
TAP	77	96	3
TAP	77	192	4
TAP	77	288	4
TAP	78	0	3
TAP	78	96	3
TAP	78	192	4
TAP	78	288	4
HLD	79	0	3	192
HLD	80	0	2	192
HLD	80	0	4	192
TAP	81	0	5
TAP	81	96	5
TAP	81	192	6
TAP	81	288	6
TAP	82	0	7
TAP	82	96	7
TAP	82	192	0
TAP	82	288	0
HLD	83	0	1	192
HLD	84	0	2	192
HLD	84	0	3	192
TAP	85	0	1
TAP	85	96	1
TAP	85	192	0
TAP	85	288	0
TAP	86	0	7
TAP	86	96	7
TAP	86	192	6
TAP	86	288	6
HLD	87	0	5	192
HLD	88	0	3	192
HLD	88	0	4	192
TAP	89	0	5
TAP	89	96	5
TAP	89	192	6
TAP	90	0	6
TAP	90	96	6
TAP	90	192	7
TAP	91	0	7
TAP	91	96	7
TAP	91	192	0
TAP	92	0	0
TAP	92	96	0
TAP	92	192	1
TAP	93	0	1
TAP	93	96	1
TAP	93	192	2
TAP	94	0	2
TAP	94	96	2
TAP	94	192	3
TAP	95	0	3
TAP	95	96	3
TAP	95	192	4
HLD	96	0	3	192
HLD	96	0	4	192
TAP	97	0	2
TAP	97	96	2
TAP	97	192	1
TAP	98	0	1
TAP	98	96	1
TAP	98	192	0
TAP	99	0	0
TAP	99	96	0
TAP	99	192	7
TAP	100	0	7
TAP	100	96	7
TAP	100	192	6
TAP	101	0	6
TAP	101	96	6
TAP	101	192	5
TAP	102	0	5
TAP	102	96	5
TAP	102	192	4
TAP	103	0	4
TAP	103	96	4
TAP	103	192	3
HLD	104	0	3	192
HLD	104	0	4	192
TAP	105	0	3
TAP	105	0	4
BRK	105	96	3
BRK	105	96	4

T_REC_TAP	213
T_REC_BRK	4
T_REC_XTP	0
T_REC_HLD	43
T_REC_XHO	0
T_REC_STR	4
T_REC_BST	0
T_REC_XST	0
T_REC_TTP	0
T_REC_THO	0
T_REC_SLD	4
T_REC_ALL	268
T_NUM_TAP	217
T_NUM_BRK	4
T_NUM_HLD	43
T_NUM_SLD	4
T_NUM_ALL	268
T_JUDGE_TAP	221
T_JUDGE_HLD	172
T_JUDGE_SLD	4
T_JUDGE_ALL	397
TTM_EACHPAIRS	43
TTM_SCR_TAP	108500
TTM_SCR_BRK	10400
TTM_SCR_HLD	43000
TTM_SCR_SLD	6000
TTM_SCR_ALL	167900
TTM_SCR_S	162500
TTM_SCR_SS	167500
TTM_RAT_ACV	10023

