VERSION	0.00.00	1.03.00
FES_MODE	0
BPM_DEF	121.000	121.000	121.000	121.000
MET_DEF	4	4
RESOLUTION	384
CLK_DEF	384
COMPATIBLE_CODE	MA2

BPM	0	0	121.000

TAP	1	0	1
TAP	1	48	2
TAP	1	96	3
STR	1	144	4
SXL	1	144	4	96	48	6
TAP	1	240	7
TAP	1	288	0
TAP	2	0	6
TAP	2	48	5
TAP	2	96	4
STR	2	144	3
SXR	2	144	3	96	48	1
TAP	2	240	0
TAP	2	288	7
TAP	2	336	6
TAP	3	0	5
STR	3	48	4
SCR	3	48	4	96	48	7
TAP	3	96	3
STR	3	144	4
SCL	3	144	4	96	48	1
STR	3	240	4
SXL	3	240	4	96	144	7
SXR	3	240	4	96	144	1
TAP	3	336	4
STR	4	192	2
SXR	4	192	2	96	48	0
STR	4	192	6
SXR	4	192	6	96	48	4
TAP	5	0	0
TAP	5	0	1
TAP	5	48	7
TAP	5	96	6
TAP	5	144	4
TAP	5	144	5
TAP	5	192	3
TAP	5	240	2
STR	5	288	0
SCR	5	288	0	96	48	3
TAP	5	288	1
TAP	5	336	7
STR	6	0	0
SCL	6	0	0	96	48	5
STR	6	96	0
SXL	6	96	0	96	96	4
TAP	6	192	0
TAP	7	0	3
TAP	7	0	4
TAP	7	48	5
TAP	7	96	6
TAP	7	144	0
TAP	7	144	7
TAP	7	192	1
TAP	7	240	2
TAP	7	288	3
TAP	7	288	4
TAP	7	336	3
TAP	7	336	4
TAP	8	48	2
TAP	8	48	5
TAP	8	96	2
STR	8	96	5
SUR	8	96	5	96	96	7
TAP	8	192	1
TAP	8	288	0
TAP	9	0	6
TAP	9	0	7
TAP	9	48	0
TAP	9	96	1
TAP	9	144	2
TAP	9	144	3
TAP	9	192	4
TAP	9	240	5
TAP	9	288	6
STR	9	288	7
SCL	9	288	7	96	48	4
TAP	9	336	0
STR	10	0	7
SCR	10	0	7	96	48	2
STR	10	96	7
SXR	10	96	7	96	96	3
TAP	10	192	7
TAP	11	0	2
TAP	11	0	5
TAP	11	48	3
TAP	11	48	4
TAP	11	96	3
TAP	11	96	4
TAP	11	144	2
TAP	11	168	3
TAP	11	192	2
TAP	11	240	5
TAP	11	264	4
TAP	11	288	5
BST	11	336	0
SCR	11	336	0	96	96	3
BST	11	336	7
SCL	11	336	7	96	96	4
TAP	12	240	3
TAP	12	288	4
STR	13	0	0
SCL	13	0	0	96	72	5
STR	13	72	5
SCR	13	72	5	96	120	2
TAP	13	144	3
TAP	13	192	3
TAP	13	288	4
STR	14	0	7
SCR	14	0	7	96	72	2
STR	14	72	2
SCL	14	72	2	96	120	5
TAP	14	144	4
TAP	14	192	4
TAP	14	288	3
TAP	15	0	1
TAP	15	0	3
STR	15	72	2
SXL	15	72	2	96	96	3
SLL	15	72	2	96	96	3
TAP	15	72	4
TAP	15	144	2
TAP	15	336	4
TAP	16	0	5
TAP	16	48	6
TAP	16	96	7
HLD	16	144	0	144
TAP	16	240	7
TAP	16	288	7
STR	17	0	1
SCL	17	0	1	96	72	6
STR	17	72	6
SXL	17	72	6	96	120	3
TAP	17	144	4
TAP	17	192	4
TAP	17	288	5
STR	18	0	6
SCR	18	0	6	96	72	1
STR	18	72	1
SXR	18	72	1	96	120	4
TAP	18	144	3
TAP	18	192	3
TAP	18	288	2
STR	19	0	0
SCR	19	0	0	96	48	3
STR	19	0	4
SUL	19	0	4	96	48	7
STR	19	192	3
SUR	19	192	3	96	48	0
STR	19	192	7
SCL	19	192	7	96	48	4
HLD	20	0	1	96
HLD	20	96	3	96
HLD	20	192	5	96
TAP	20	288	7
TAP	20	336	0
STR	21	0	6
SCL	21	0	6	96	96	2
STR	21	96	2
SUR	21	96	2	96	96	6
STR	21	192	6
SXL	21	192	6	96	192	1
TAP	21	288	4
TAP	21	336	4
TAP	22	96	3
TAP	22	192	2
TAP	22	288	1
TAP	22	288	4
STR	23	0	1
SCR	23	0	1	96	96	5
STR	23	96	5
SUL	23	96	5	96	96	1
STR	23	192	1
SXR	23	192	1	96	192	6
TAP	23	288	3
TAP	23	336	3
TAP	24	96	4
TAP	24	192	5
TAP	24	288	3
TAP	24	288	6
HLD	25	0	5	96
HLD	25	96	2	96
HLD	25	192	6	96
HLD	25	288	1	240
TAP	25	336	0
TAP	26	48	7
TAP	26	144	6
TAP	26	240	4
TAP	26	288	3
TAP	26	336	2
STR	27	0	1
SCR	27	0	1	96	48	3
STR	27	96	5
SCR	27	96	5	96	48	7
TAP	27	192	0
TAP	27	240	1
TAP	27	288	2
STR	27	336	3
SXL	27	336	3	96	144	3
SXR	27	336	3	96	144	3
STR	28	288	6
SUL	28	288	6	96	96	1
TAP	28	336	7
TAP	29	0	6
TAP	29	96	0
TAP	29	192	1
TAP	29	192	7
BRK	29	288	2
BRK	29	288	6
HLD	30	0	0	288
TAP	30	0	7
TAP	30	96	1
STR	30	144	1
SCR	30	144	1	96	96	7
TAP	30	336	0
TAP	31	0	1
TAP	31	48	2
TAP	31	96	3
STR	31	144	4
SI_	31	144	4	96	48	2
STR	31	144	5
SI_	31	144	5	96	48	7
TAP	31	240	4
TAP	31	240	5
TAP	32	0	0
TAP	32	0	1
TAP	32	48	7
TAP	32	96	6
TAP	32	144	4
STR	32	144	5
SSR	32	144	5	96	96	1
TAP	32	240	4
TAP	32	336	3
TAP	33	48	0
TAP	33	48	2
TAP	33	96	0
TAP	33	96	2
TAP	33	192	3
TAP	33	264	2
TAP	33	264	4
TAP	33	336	1
TAP	33	336	5
TAP	34	0	0
TAP	34	0	7
TAP	34	96	3
TAP	34	96	4
STR	34	144	2
SCL	34	144	2	96	192	5
TAP	34	144	5
TAP	34	240	4
TAP	34	336	3
TAP	35	48	2
TAP	35	96	1
TAP	35	144	0
TAP	35	144	7
TAP	35	240	3
TAP	35	288	4
TAP	35	336	2
TAP	35	360	3
TAP	36	0	2
TAP	36	72	1
TAP	36	72	3
TAP	36	144	0
TAP	36	144	4
TAP	36	192	5
HLD	36	192	7	72
TAP	36	264	0
TAP	36	336	1
TAP	36	336	6
TAP	37	48	3
TAP	37	48	4
STR	37	96	3
SCL	37	96	3	96	48	0
SCR	37	96	3	96	48	6
TAP	37	96	4
STR	37	192	3
SF_	37	192	3	96	48	7
TAP	37	288	3
TAP	38	0	3
TAP	38	0	4
TAP	38	96	2
TAP	38	96	5
STR	38	144	2
SV_	38	144	2	96	48	0
STR	38	144	5
SV_	38	144	5	96	48	7
TAP	38	336	1
TAP	39	0	2
TAP	39	0	3
TAP	39	48	4
TAP	39	96	5
TAP	39	144	6
STR	39	144	7
SLL	39	144	7	96	96	3
SLR	39	144	7	96	96	3
TAP	39	240	7
TAP	40	0	0
TAP	40	0	1
TAP	40	48	2
TAP	40	96	3
STR	40	144	4
SI_	40	144	4	96	48	1
SCL	40	144	4	96	48	1
TAP	40	144	5
STR	40	240	4
SI_	40	240	4	96	48	7
SCR	40	240	4	96	48	7
TAP	40	336	4
TAP	41	48	0
TAP	41	96	1
TAP	41	96	7
TAP	41	192	0
TAP	41	192	4
TAP	41	264	2
TAP	41	264	6
TAP	41	336	0
TAP	41	360	7
STR	42	0	1
SCL	42	0	1	96	72	6
STR	42	72	6
SUL	42	72	6	96	72	1
TAP	42	144	3
STR	42	192	3
SCL	42	192	3	96	48	0
SCR	42	192	3	96	48	6
STR	43	0	6
SCR	43	0	6	96	72	1
STR	43	72	1
SUR	43	72	1	96	72	6
TAP	43	144	4
STR	43	192	4
SCL	43	192	4	96	48	1
SCR	43	192	4	96	48	7
TAP	44	0	0
TAP	44	48	1
TAP	44	48	7
TAP	44	96	2
TAP	44	96	6
STR	44	144	3
SCL	44	144	3	96	48	0
SCR	44	144	3	96	48	6
TAP	44	144	5
STR	44	240	3
SF_	44	240	3	96	144	7
TAP	44	336	3
TAP	45	192	2
TAP	45	192	5
TAP	45	240	2
TAP	45	240	5
TAP	45	288	4
TAP	45	312	3
TAP	45	336	4
TAP	46	0	2
TAP	46	24	3
TAP	46	48	2
TAP	46	96	1
TAP	46	96	4
TAP	46	144	5
TAP	46	168	4
TAP	46	192	5
TAP	46	240	3
TAP	46	240	6
TAP	46	288	2
TAP	46	312	3
TAP	46	336	2
TAP	47	0	1
TAP	47	0	4
TAP	47	48	5
TAP	47	72	4
TAP	47	96	5
TAP	47	144	3
TAP	47	144	6
STR	47	168	3
SCL	47	168	3	96	48	0
STR	47	168	6
SXR	47	168	6	96	48	4
TAP	47	360	5
TAP	47	360	7
TAP	48	24	5
TAP	48	48	4
TAP	48	72	3
TAP	48	96	2
TAP	48	144	1
TAP	48	144	4
TAP	48	192	5
TAP	48	240	3
TAP	48	240	6
BST	48	288	0
SCR	48	288	0	96	48	4
BRK	48	288	7
TAP	49	48	7
TAP	49	120	0
TAP	49	120	6
TAP	49	192	5
TAP	49	216	4
TAP	49	240	5
TAP	49	288	3
TAP	49	288	4
TAP	49	336	2
TAP	49	336	5
TAP	50	0	6
TAP	50	48	5
TAP	50	48	7
TAP	50	96	4
HLD	50	120	3	144
TAP	50	168	1
TAP	50	216	1
TAP	50	264	1
TAP	50	288	3
TAP	50	336	2
TAP	50	336	4
TAP	51	0	1
TAP	51	48	0
TAP	51	48	2
TAP	51	96	3
HLD	51	120	4	144
TAP	51	168	6
TAP	51	216	6
TAP	51	264	6
TAP	51	288	4
TAP	51	336	3
TAP	51	336	5
STR	52	0	0
SCR	52	0	0	96	48	3
TAP	52	0	4
STR	52	96	0
SCL	52	96	0	96	48	5
TAP	52	96	4
TAP	52	192	0
TAP	52	192	4
TAP	52	288	0
TAP	52	288	4
BRK	52	336	0
BST	52	336	4
SXL	52	336	4	96	144	7
TAP	53	48	0
TAP	53	96	1
TAP	53	144	2
TAP	53	192	3
TAP	53	288	1
TAP	53	288	6
TAP	54	0	2
TAP	54	96	3
STR	54	144	3
SF_	54	144	3	96	96	7
TAP	55	0	1
TAP	55	48	2
TAP	55	96	3
HLD	55	144	4	96
BRK	55	240	5
BRK	55	312	0
BRK	55	312	7
TAP	56	0	6
TAP	56	48	5
TAP	56	48	7
TAP	56	96	0
TAP	56	96	4
STR	56	144	1
SXL	56	144	1	96	144	5
TAP	56	144	3
TAP	56	240	0
TAP	56	288	7
TAP	56	336	6
TAP	57	48	3
TAP	57	48	4
TAP	57	96	3
TAP	57	96	4
TAP	57	192	5
TAP	57	192	7
TAP	57	264	0
TAP	57	264	2
TAP	57	336	3
TAP	57	336	4
TAP	58	0	0
TAP	58	48	7
TAP	58	96	6
STR	58	144	5
SCR	58	144	5	96	96	1
TAP	58	240	4
TAP	58	288	3
STR	58	336	2
SCL	58	336	2	96	96	6
TAP	59	48	3
TAP	59	96	4
TAP	59	144	5
TAP	59	240	3
TAP	59	240	4
TAP	59	288	1
TAP	59	288	6
TAP	59	336	2
TAP	59	360	3
HLD	60	0	1	72
TAP	60	72	0
TAP	60	144	2
TAP	60	144	7
HLD	60	192	6	72
TAP	60	264	7
TAP	60	336	0
TAP	60	336	5
TAP	61	48	3
TAP	61	72	4
TAP	61	96	3
TAP	61	120	4
TAP	61	144	3
TAP	61	168	4
HLD	61	192	1	48
HLD	61	240	0	48
HLD	61	288	7	48
HLD	61	336	6	48
TAP	62	0	3
TAP	62	96	0
TAP	62	96	7
TAP	62	144	0
STR	62	144	7
SXR	62	144	7	96	96	0
TAP	62	336	1
TAP	63	0	0
TAP	63	0	2
TAP	63	48	3
TAP	63	48	7
TAP	63	96	4
TAP	63	96	6
STR	63	144	5
SXL	63	144	5	96	48	7
SXR	63	144	5	96	48	3
TAP	63	240	5
TAP	64	0	3
TAP	64	0	4
TAP	64	48	2
TAP	64	48	5
TAP	64	96	1
TAP	64	96	6
TAP	64	144	0
HLD	64	144	7	192
STR	64	240	2
SUR	64	240	2	96	96	7
TAP	64	288	2
TAP	64	336	2
TAP	65	48	0
TAP	65	96	1
TAP	65	96	7
TAP	65	192	0
TAP	65	192	2
TAP	65	264	5
TAP	65	264	7
TAP	65	336	3
TAP	65	360	4
STR	66	0	3
SV_	66	0	3	96	72	6
STR	66	72	6
SCR	66	72	6	96	72	0
TAP	66	144	5
STR	66	192	5
SI_	66	192	5	96	48	1
TAP	66	336	0
STR	67	0	0
SCL	67	0	0	96	72	6
STR	67	72	6
SV_	67	72	6	96	96	3
TAP	67	144	5
STR	67	192	5
SI_	67	192	5	96	48	1
TAP	67	336	0
TAP	68	0	1
TAP	68	0	7
TAP	68	48	2
TAP	68	48	6
TAP	68	96	3
TAP	68	96	5
TAP	68	144	4
STR	68	240	1
SUL	68	240	1	96	96	5
STR	68	240	6
SUR	68	240	6	96	96	2
TAP	68	336	1
TAP	68	336	6
TAP	69	96	3
TAP	69	96	4
TAP	69	192	3
TAP	69	240	2
TAP	69	288	1
BRK	69	336	0
BRK	69	336	7
TAP	70	48	3
TAP	70	48	4
TAP	70	96	1
TAP	70	96	6
TAP	70	192	0
TAP	70	192	4
TAP	70	240	1
TAP	70	240	5
TAP	70	288	2
TAP	70	288	6
BRK	70	336	3
BST	70	336	7
SF_	70	336	7	96	240	3

T_REC_TAP	392
T_REC_BRK	10
T_REC_XTP	0
T_REC_HLD	20
T_REC_XHO	0
T_REC_STR	76
T_REC_BST	5
T_REC_XST	0
T_REC_TTP	0
T_REC_THO	0
T_REC_SLD	92
T_REC_ALL	595
T_NUM_TAP	468
T_NUM_BRK	15
T_NUM_HLD	20
T_NUM_SLD	92
T_NUM_ALL	595
T_JUDGE_TAP	483
T_JUDGE_HLD	48
T_JUDGE_SLD	92
T_JUDGE_ALL	623
TTM_EACHPAIRS	119
TTM_SCR_TAP	234000
TTM_SCR_BRK	39000
TTM_SCR_HLD	20000
TTM_SCR_SLD	138000
TTM_SCR_ALL	431000
TTM_SCR_S	416650
TTM_SCR_SS	429500
TTM_RAT_ACV	10034

