VERSION	0.00.00	1.03.00
FES_MODE	0
BPM_DEF	121.000	121.000	121.000	121.000
MET_DEF	4	4
RESOLUTION	384
CLK_DEF	384
COMPATIBLE_CODE	MA2

BPM	0	0	121.000
MET	0	0	4	4

HLD	1	0	2	144
HLD	1	144	3	144
TAP	1	288	2
HLD	2	0	5	144
HLD	2	144	4	144
TAP	2	288	5
TAP	3	0	2
TAP	3	48	5
TAP	3	96	3
HLD	3	144	4	96
TAP	3	240	3
STR	3	336	3
SCL	3	336	3	96	144	0
STR	3	336	4
SCR	3	336	4	96	144	7
BRK	4	288	1
BRK	4	288	6
TAP	5	0	3
TAP	5	96	2
TAP	5	96	3
TAP	5	192	4
TAP	5	288	4
TAP	5	288	5
TAP	6	0	2
TAP	6	48	2
TAP	6	96	1
TAP	6	96	3
TAP	6	192	5
TAP	6	240	5
TAP	6	288	4
TAP	6	288	6
TAP	7	0	0
TAP	7	96	0
TAP	7	96	1
TAP	7	192	7
TAP	7	288	6
TAP	7	288	7
TAP	8	0	1
TAP	8	48	1
TAP	8	96	0
TAP	8	96	2
TAP	8	192	6
TAP	8	240	6
TAP	8	288	5
TAP	8	288	7
TAP	9	0	2
TAP	9	0	3
TAP	9	96	1
TAP	9	96	4
TAP	9	192	4
TAP	9	192	5
TAP	9	288	3
TAP	9	288	6
TAP	10	0	1
TAP	10	48	0
TAP	10	96	2
TAP	10	96	7
TAP	10	192	6
TAP	10	240	7
TAP	10	288	0
TAP	10	288	5
TAP	11	0	3
TAP	11	0	4
TAP	11	96	2
TAP	11	96	5
TAP	11	192	1
TAP	11	192	6
STR	11	288	0
SCR	11	288	0	96	192	6
TAP	11	288	7
TAP	11	336	0
HLD	11	336	7	240
BRK	12	288	0
BRK	12	288	7
HLD	13	0	2	72
TAP	13	72	3
TAP	13	144	1
TAP	13	144	4
TAP	13	192	1
TAP	13	192	4
TAP	13	288	6
TAP	13	288	7
HLD	14	0	5	72
TAP	14	72	4
TAP	14	144	3
TAP	14	144	6
TAP	14	192	3
TAP	14	192	6
TAP	14	288	0
TAP	14	288	1
HLD	15	0	2	72
TAP	15	72	3
TAP	15	144	1
TAP	15	144	4
TAP	15	192	1
TAP	15	192	4
TAP	15	288	6
TAP	15	288	7
TAP	16	0	4
TAP	16	0	5
TAP	16	96	2
TAP	16	96	7
HLD	16	144	2	144
HLD	16	144	7	144
HLD	17	0	1	72
TAP	17	72	0
TAP	17	144	2
TAP	17	144	7
TAP	17	192	2
TAP	17	192	7
TAP	17	288	4
TAP	17	288	5
HLD	18	0	6	72
TAP	18	72	7
TAP	18	144	0
TAP	18	144	5
TAP	18	192	0
TAP	18	192	5
TAP	18	288	2
TAP	18	288	3
STR	19	0	1
SCR	19	0	1	96	48	4
TAP	19	96	0
STR	19	192	6
SCL	19	192	6	96	48	3
TAP	19	288	7
HLD	20	0	0	192
BRK	20	192	7
HLD	21	0	3	96
TAP	21	0	4
TAP	21	96	2
TAP	21	192	3
HLD	21	192	4	96
TAP	21	288	5
HLD	22	0	2	96
TAP	22	0	5
TAP	22	96	1
TAP	22	192	2
HLD	22	192	5	96
TAP	22	288	6
HLD	23	0	1	96
TAP	23	0	6
TAP	23	96	0
TAP	23	192	1
HLD	23	192	6	96
TAP	23	288	7
HLD	24	0	0	96
TAP	24	0	7
TAP	24	96	1
TAP	24	192	0
HLD	24	192	7	96
TAP	24	288	6
HLD	25	0	0	96
HLD	25	96	1	96
HLD	25	192	2	96
HLD	25	288	6	96
HLD	26	0	5	96
HLD	26	96	4	96
HLD	26	192	1	96
HLD	26	288	2	96
STR	27	0	3
SXL	27	0	3	96	192	3
SXR	27	0	3	96	192	3
STR	28	0	0
SI_	28	0	0	96	48	4
STR	28	96	7
SI_	28	96	7	96	48	3
STR	28	192	1
SI_	28	192	1	96	48	4
TAP	28	288	6
STR	29	0	7
SI_	29	0	7	96	48	3
STR	29	96	0
SI_	29	96	0	96	48	4
STR	29	192	6
SI_	29	192	6	96	48	3
BRK	29	288	1
TAP	30	0	3
STR	30	48	3
SCL	30	48	3	96	96	6
TAP	30	96	4
TAP	30	144	4
HLD	31	0	6	96
STR	31	96	1
SI_	31	96	1	96	48	4
TAP	31	144	1
BRK	31	240	0
HLD	32	0	6	144
TAP	32	48	7
TAP	32	96	0
HLD	32	144	1	192
TAP	32	240	2
TAP	32	288	3
HLD	32	336	4	144
TAP	33	48	5
TAP	33	96	5
TAP	33	192	1
TAP	33	192	3
TAP	33	264	4
TAP	33	264	6
TAP	33	336	2
TAP	33	336	5
STR	34	0	2
SCL	34	0	2	96	48	7
TAP	34	96	6
TAP	34	144	6
TAP	34	240	5
TAP	34	288	5
STR	34	336	5
SCR	34	336	5	96	48	0
TAP	35	48	1
TAP	35	96	1
TAP	35	144	1
TAP	35	288	1
TAP	35	288	6
HLD	36	0	4	72
HLD	36	72	5	72
TAP	36	144	6
HLD	36	192	2	72
HLD	36	264	1	72
TAP	36	336	0
HLD	37	0	4	96
HLD	37	96	2	96
HLD	37	192	6	96
BRK	37	288	1
TAP	38	0	4
STR	38	48	4
SCR	38	48	4	96	96	1
TAP	38	96	3
TAP	38	144	3
HLD	39	0	1	96
STR	39	96	6
SI_	39	96	6	96	48	3
TAP	39	144	6
BRK	39	240	7
HLD	40	0	1	144
TAP	40	48	0
TAP	40	96	7
HLD	40	144	6	192
TAP	40	240	5
TAP	40	288	4
HLD	40	336	3	144
TAP	41	48	2
TAP	41	96	2
TAP	41	192	4
TAP	41	192	6
TAP	41	264	1
TAP	41	264	3
TAP	41	336	2
TAP	41	336	5
HLD	42	0	1	72
HLD	42	72	2	72
TAP	42	144	3
TAP	42	192	3
TAP	42	288	0
TAP	42	288	7
HLD	43	0	6	72
HLD	43	72	5	72
TAP	43	144	4
TAP	43	192	4
TAP	43	288	0
TAP	43	288	7
TAP	44	0	2
TAP	44	0	7
TAP	44	96	4
TAP	44	96	5
TAP	44	144	4
TAP	44	144	5
TAP	44	240	0
TAP	44	240	5
STR	44	336	2
SXR	44	336	2	96	144	1
STR	44	336	3
SXL	44	336	3	96	144	4
STR	46	0	1
SXR	46	0	1	96	144	4
STR	47	0	6
SXL	47	0	6	96	144	3
TAP	48	0	1
STR	48	96	2
SXL	48	96	2	96	144	7
TAP	49	0	6
STR	49	96	5
SXR	49	96	5	96	144	0
STR	50	0	1
SUR	50	0	1	96	144	0
STR	50	0	2
SCR	50	0	2	96	144	7
STR	51	0	5
SCL	51	0	5	96	144	0
STR	51	0	6
SUL	51	0	6	96	144	7
TAP	52	0	2
TAP	52	0	4
TAP	52	96	0
TAP	52	96	6
TAP	52	192	3
TAP	52	192	5
TAP	52	288	1
TAP	52	288	7
TAP	53	0	2
TAP	53	0	3
TAP	53	96	6
TAP	53	96	7
TAP	53	192	4
TAP	53	192	5
TAP	53	288	0
TAP	53	288	1
TAP	54	0	1
TAP	54	0	6
TAP	54	96	0
TAP	54	96	7
STR	54	144	0
SCR	54	144	0	96	72	3
STR	54	144	7
SCL	54	144	7	96	72	4
HLD	55	0	3	96
HLD	55	0	4	96
TAP	55	144	2
TAP	55	144	5
BRK	55	240	1
BRK	55	240	4
BRK	55	312	3
BRK	55	312	6
HLD	56	0	1	144
TAP	56	0	6
TAP	56	96	7
HLD	56	144	6	192
TAP	56	240	5
TAP	56	288	4
HLD	56	336	3	144
TAP	57	48	2
TAP	57	96	2
TAP	57	192	4
TAP	57	192	6
TAP	57	264	1
TAP	57	264	3
TAP	57	336	2
TAP	57	336	5
STR	58	0	5
SCR	58	0	5	96	72	0
TAP	58	96	1
TAP	58	144	1
TAP	58	240	2
TAP	58	288	2
STR	58	336	2
SCL	58	336	2	96	48	7
TAP	59	48	6
TAP	59	96	6
TAP	59	144	6
TAP	59	288	2
TAP	59	288	5
TAP	60	0	0
TAP	60	0	1
TAP	60	72	2
TAP	60	72	7
TAP	60	144	3
TAP	60	144	6
TAP	60	192	6
TAP	60	192	7
TAP	60	264	0
TAP	60	264	5
TAP	60	336	1
TAP	60	336	4
TAP	61	0	3
TAP	61	96	3
TAP	61	96	5
TAP	61	192	1
TAP	61	192	5
BRK	61	288	1
BRK	61	288	6
TAP	62	0	3
STR	62	48	3
SCL	62	48	3	96	96	6
TAP	62	96	4
TAP	62	144	4
HLD	63	0	6	96
STR	63	96	1
SI_	63	96	1	96	48	4
TAP	63	144	1
BRK	63	240	0
HLD	64	0	6	144
TAP	64	48	7
TAP	64	96	0
HLD	64	144	1	192
TAP	64	240	2
TAP	64	288	3
HLD	64	336	4	144
TAP	65	48	5
TAP	65	96	5
TAP	65	192	0
TAP	65	192	2
TAP	65	264	5
TAP	65	264	7
TAP	65	336	1
TAP	65	336	6
TAP	66	0	0
TAP	66	0	1
TAP	66	72	2
TAP	66	72	7
TAP	66	144	3
TAP	66	144	6
TAP	66	192	3
TAP	66	192	6
TAP	66	288	0
TAP	66	288	7
TAP	67	0	6
TAP	67	0	7
TAP	67	72	0
TAP	67	72	5
TAP	67	144	1
TAP	67	144	4
TAP	67	192	1
TAP	67	192	4
TAP	67	288	0
TAP	67	288	7
TAP	68	0	2
TAP	68	0	7
TAP	68	96	4
TAP	68	96	5
TAP	68	144	4
TAP	68	144	5
TAP	68	240	0
TAP	68	240	5
STR	68	336	2
SI_	68	336	2	96	144	7
STR	68	336	6
SI_	68	336	6	96	144	3
TAP	69	288	1
TAP	69	288	5
STR	69	336	1
SI_	69	336	1	96	144	4
STR	69	336	5
SI_	69	336	5	96	144	0
TAP	70	288	0
TAP	70	288	1
BST	70	336	0
SXR	70	336	0	96	288	5
BST	70	336	1
SXL	70	336	1	96	288	4

T_REC_TAP	285
T_REC_BRK	16
T_REC_XTP	0
T_REC_HLD	58
T_REC_XHO	0
T_REC_STR	38
T_REC_BST	2
T_REC_XST	0
T_REC_TTP	0
T_REC_THO	0
T_REC_SLD	41
T_REC_ALL	440
T_NUM_TAP	323
T_NUM_BRK	18
T_NUM_HLD	58
T_NUM_SLD	41
T_NUM_ALL	440
T_JUDGE_TAP	341
T_JUDGE_HLD	143
T_JUDGE_SLD	41
T_JUDGE_ALL	525
TTM_EACHPAIRS	115
TTM_SCR_TAP	161500
TTM_SCR_BRK	46800
TTM_SCR_HLD	58000
TTM_SCR_SLD	61500
TTM_SCR_ALL	327800
TTM_SCR_S	316250
TTM_SCR_SS	326000
TTM_RAT_ACV	10055

