VERSION	0.00.00	1.03.00
FES_MODE	0
BPM_DEF	121.000	121.000	121.000	121.000
MET_DEF	4	4
RESOLUTION	384
CLK_DEF	384
COMPATIBLE_CODE	MA2

BPM	0	0	121.000

TAP	5	0	0
TAP	5	96	0
TAP	5	192	1
TAP	5	288	1
TAP	6	0	2
TAP	6	96	2
TAP	6	192	3
TAP	6	288	3
TAP	7	0	4
TAP	7	96	4
TAP	7	192	5
TAP	7	288	5
TAP	8	0	6
TAP	8	96	6
TAP	8	192	0
TAP	8	192	7
TAP	9	0	6
TAP	9	96	6
TAP	9	192	5
TAP	9	288	5
TAP	10	0	4
TAP	10	96	4
TAP	10	192	3
TAP	10	288	3
TAP	11	0	2
TAP	11	96	2
TAP	11	192	1
TAP	11	288	1
STR	12	0	0
SCR	12	0	0	96	144	3
STR	12	0	7
SCL	12	0	7	96	144	4
TAP	13	0	2
TAP	13	96	3
TAP	13	192	1
TAP	13	192	4
TAP	14	0	5
TAP	14	96	4
TAP	14	192	3
TAP	14	192	6
TAP	15	0	3
TAP	15	96	3
TAP	15	192	4
TAP	15	288	4
TAP	16	0	3
TAP	16	96	4
TAP	16	192	2
TAP	16	192	5
TAP	17	0	5
TAP	17	96	4
TAP	17	192	3
TAP	17	192	6
TAP	18	0	2
TAP	18	96	3
TAP	18	192	1
TAP	18	192	4
TAP	19	0	4
TAP	19	0	5
TAP	19	192	2
TAP	19	192	3
TAP	20	0	3
TAP	20	0	4
TAP	20	96	3
TAP	20	96	4
TAP	20	192	1
TAP	20	192	6
HLD	21	0	2	192
TAP	21	192	3
TAP	21	288	2
TAP	21	288	3
HLD	22	0	5	192
TAP	22	192	4
TAP	22	288	4
TAP	22	288	5
HLD	23	0	1	192
TAP	23	192	0
TAP	23	288	0
TAP	23	288	1
HLD	24	0	6	192
TAP	24	192	7
TAP	24	288	6
TAP	24	288	7
STR	25	0	1
SI_	25	0	1	96	96	4
STR	25	192	6
SI_	25	192	6	96	96	3
STR	26	0	0
SI_	26	0	0	96	96	4
STR	26	192	7
SI_	26	192	7	96	96	3
STR	27	0	1
SI_	27	0	1	96	96	5
STR	27	192	6
SI_	27	192	6	96	96	2
STR	28	0	0
SSL	28	0	0	96	192	4
TAP	29	0	6
TAP	29	0	7
TAP	29	96	6
TAP	29	96	7
TAP	29	192	0
TAP	29	192	1
TAP	29	288	0
TAP	29	288	1
TAP	30	0	2
TAP	30	96	1
TAP	30	96	3
TAP	30	192	5
TAP	30	288	4
TAP	30	288	6
TAP	31	0	2
TAP	31	96	1
TAP	31	96	3
TAP	31	192	6
TAP	31	192	7
TAP	32	0	5
TAP	32	96	4
TAP	32	96	6
TAP	32	192	2
TAP	32	288	1
TAP	32	288	3
TAP	33	0	5
TAP	33	96	4
TAP	33	96	6
BRK	33	192	0
BRK	33	192	1
STR	34	0	2
SCL	34	0	2	96	192	5
STR	35	0	5
SCR	35	0	5	96	192	2
TAP	36	0	3
TAP	36	0	4
TAP	36	96	3
TAP	36	96	4
TAP	36	192	2
TAP	36	192	5
TAP	36	288	2
TAP	36	288	5
TAP	37	0	1
TAP	37	0	6
TAP	37	96	1
TAP	37	96	6
BRK	37	192	0
BRK	37	192	7
TAP	38	0	5
TAP	38	96	4
TAP	38	96	6
TAP	38	192	2
TAP	38	288	1
TAP	38	288	3
TAP	39	0	5
TAP	39	96	4
TAP	39	96	6
TAP	39	192	0
TAP	39	192	1
TAP	40	0	2
TAP	40	96	1
TAP	40	96	3
TAP	40	192	5
TAP	40	288	4
TAP	40	288	6
TAP	41	0	2
TAP	41	96	1
TAP	41	96	3
BRK	41	192	6
BRK	41	192	7
TAP	42	0	0
TAP	42	0	1
TAP	42	96	0
TAP	42	96	1
TAP	42	192	2
TAP	42	192	7
TAP	43	0	6
TAP	43	0	7
TAP	43	96	6
TAP	43	96	7
TAP	43	192	0
TAP	43	192	5
TAP	44	0	0
TAP	44	0	7
TAP	44	96	1
TAP	44	96	6
TAP	44	192	2
TAP	44	192	5
STR	44	288	3
SCL	44	288	3	96	144	0
STR	44	288	4
SCR	44	288	4	96	144	7
STR	46	0	0
SXR	46	0	0	96	480	5
STR	46	0	1
SXL	46	0	1	96	480	4
STR	48	0	6
SXR	48	0	6	96	480	3
STR	48	0	7
SXL	48	0	7	96	480	2
HLD	50	0	2	96
TAP	50	96	3
HLD	50	192	5	96
TAP	50	288	4
HLD	51	0	1	96
TAP	51	96	2
HLD	51	192	6	96
TAP	51	288	5
HLD	52	0	1	96
TAP	52	96	0
HLD	52	192	6	96
TAP	52	288	7
TAP	53	0	0
TAP	53	0	7
TAP	53	96	0
TAP	53	96	7
BRK	53	192	1
BRK	53	192	6
HLD	54	0	2	192
TAP	54	192	3
HLD	55	0	5	192
TAP	55	192	4
TAP	55	288	3
TAP	55	288	4
TAP	56	0	2
TAP	56	96	1
TAP	56	96	3
TAP	56	192	5
TAP	56	288	4
TAP	56	288	6
TAP	57	0	2
TAP	57	96	1
TAP	57	96	3
TAP	57	192	0
TAP	57	192	7
TAP	58	0	1
TAP	58	96	0
TAP	58	96	2
TAP	58	192	6
TAP	58	288	5
TAP	58	288	7
TAP	59	0	1
TAP	59	96	0
TAP	59	96	2
TAP	59	192	6
TAP	59	288	5
TAP	59	288	7
TAP	60	0	0
TAP	60	0	1
TAP	60	96	0
TAP	60	96	1
TAP	60	192	6
TAP	60	192	7
TAP	60	288	6
TAP	60	288	7
TAP	61	0	0
TAP	61	0	7
TAP	61	96	1
TAP	61	96	6
TAP	61	192	2
TAP	61	192	5
TAP	62	0	2
TAP	62	0	3
TAP	62	96	2
TAP	62	96	3
TAP	62	192	1
TAP	62	192	4
TAP	62	288	1
TAP	62	288	4
TAP	63	0	4
TAP	63	0	5
TAP	63	96	4
TAP	63	96	5
TAP	63	192	3
TAP	63	192	6
TAP	63	288	3
TAP	63	288	6
TAP	64	0	0
TAP	64	0	7
TAP	64	96	1
TAP	64	96	6
TAP	64	192	2
TAP	64	192	5
TAP	64	288	3
TAP	64	288	4
STR	65	0	3
SI_	65	0	3	96	96	0
STR	65	0	4
SI_	65	0	4	96	96	7
TAP	66	0	0
TAP	66	0	1
TAP	66	96	0
TAP	66	96	1
TAP	66	192	3
TAP	66	192	6
TAP	67	0	6
TAP	67	0	7
TAP	67	96	6
TAP	67	96	7
TAP	67	192	1
TAP	67	192	4
TAP	68	0	2
TAP	68	96	2
TAP	68	96	3
TAP	68	192	5
TAP	68	288	4
TAP	68	288	5
HLD	69	0	2	96
TAP	69	96	3
TAP	69	192	1
TAP	69	192	4
TAP	69	288	0
HLD	70	0	5	96
TAP	70	96	4
TAP	70	192	3
TAP	70	192	6
STR	70	288	7
SCL	70	288	7	96	384	0

T_REC_TAP	252
T_REC_BRK	8
T_REC_XTP	0
T_REC_HLD	14
T_REC_XHO	0
T_REC_STR	20
T_REC_BST	0
T_REC_XST	0
T_REC_TTP	0
T_REC_THO	0
T_REC_SLD	20
T_REC_ALL	314
T_NUM_TAP	272
T_NUM_BRK	8
T_NUM_HLD	14
T_NUM_SLD	20
T_NUM_ALL	314
T_JUDGE_TAP	280
T_JUDGE_HLD	40
T_JUDGE_SLD	20
T_JUDGE_ALL	340
TTM_EACHPAIRS	97
TTM_SCR_TAP	136000
TTM_SCR_BRK	20800
TTM_SCR_HLD	14000
TTM_SCR_SLD	30000
TTM_SCR_ALL	200800
TTM_SCR_S	194000
TTM_SCR_SS	200000
TTM_RAT_ACV	10040

