VERSION	0.00.00	1.03.00
FES_MODE	0
BPM_DEF	121.000	121.000	121.000	121.000
MET_DEF	4	4
RESOLUTION	384
CLK_DEF	384
COMPATIBLE_CODE	MA2

BPM	0	0	121.000

TAP	5	0	7
TAP	5	192	7
TAP	6	0	6
TAP	6	192	6
TAP	7	0	5
TAP	7	192	5
TAP	8	0	4
TAP	8	192	4
TAP	9	0	3
TAP	9	192	3
TAP	10	0	2
TAP	10	192	2
TAP	11	0	1
STR	11	192	1
SI_	11	192	1	96	288	5
TAP	13	0	7
TAP	13	96	7
TAP	13	192	7
TAP	14	0	6
TAP	14	96	6
TAP	14	192	6
TAP	15	0	5
TAP	15	96	5
TAP	15	192	5
TAP	16	0	4
TAP	16	96	4
TAP	16	192	4
TAP	17	0	3
TAP	17	96	3
TAP	17	192	3
TAP	18	0	2
TAP	18	96	2
TAP	18	192	2
TAP	19	0	1
TAP	19	96	1
TAP	19	192	1
BRK	20	0	0
HLD	21	0	0	192
HLD	22	0	1	192
HLD	23	0	2	192
HLD	24	0	3	192
HLD	25	0	4	192
HLD	26	0	5	192
HLD	27	0	6	192
BRK	28	0	7
TAP	29	0	0
TAP	29	0	7
TAP	29	192	0
TAP	29	192	7
TAP	30	0	0
TAP	30	96	0
TAP	30	192	0
TAP	31	0	1
TAP	31	96	1
TAP	31	192	0
TAP	31	192	1
TAP	32	0	2
TAP	32	96	2
TAP	32	192	2
TAP	33	0	3
TAP	33	96	3
TAP	33	192	2
TAP	33	192	3
TAP	34	0	5
TAP	34	96	5
TAP	34	192	5
TAP	35	0	4
TAP	35	96	4
TAP	35	192	4
TAP	35	192	5
TAP	36	0	6
TAP	36	96	6
TAP	36	192	6
TAP	37	0	0
TAP	37	0	7
TAP	37	192	1
TAP	37	192	6
TAP	38	0	7
TAP	38	96	7
TAP	38	192	7
TAP	39	0	6
TAP	39	96	6
TAP	39	192	6
TAP	39	192	7
TAP	40	0	5
TAP	40	96	5
TAP	40	192	5
TAP	41	0	4
TAP	41	96	4
TAP	41	192	4
TAP	41	192	5
TAP	42	0	2
TAP	42	96	2
TAP	42	192	2
TAP	43	0	3
TAP	43	96	3
TAP	43	192	2
TAP	43	192	3
TAP	44	0	1
TAP	44	96	1
TAP	44	192	1
TAP	45	0	0
TAP	45	0	7
STR	46	0	7
SI_	46	0	7	96	192	4
STR	48	0	3
SI_	48	0	3	96	192	0
STR	50	0	6
SI_	50	0	6	96	288	2
STR	52	0	1
SI_	52	0	1	96	288	5
HLD	54	0	7	192
HLD	55	0	6	192
TAP	56	0	5
TAP	56	96	5
TAP	56	192	4
TAP	56	192	5
TAP	57	0	4
TAP	57	96	4
TAP	57	192	4
TAP	57	192	5
TAP	58	0	2
TAP	58	96	2
TAP	58	192	2
TAP	58	192	3
TAP	59	0	3
TAP	59	96	3
TAP	59	192	2
TAP	59	192	3
TAP	60	0	1
TAP	60	96	1
TAP	60	192	0
TAP	60	192	1
TAP	61	0	0
TAP	61	0	1
TAP	61	192	0
TAP	61	192	1
TAP	62	0	1
TAP	62	96	1
TAP	62	192	0
TAP	62	192	1
TAP	63	0	0
TAP	63	96	0
TAP	63	192	0
TAP	63	192	1
TAP	64	0	2
TAP	64	96	2
TAP	64	192	2
TAP	64	192	3
TAP	65	0	3
TAP	65	96	3
TAP	65	192	2
TAP	65	192	3
TAP	66	0	5
TAP	66	96	5
TAP	66	192	4
TAP	66	192	5
TAP	67	0	4
TAP	67	96	4
TAP	67	192	4
TAP	67	192	5
TAP	68	0	6
TAP	68	96	6
TAP	68	192	6
TAP	68	192	7
TAP	69	0	6
TAP	69	192	7
TAP	70	0	0
STR	70	192	1
SI_	70	192	1	96	288	5

T_REC_TAP	147
T_REC_BRK	2
T_REC_XTP	0
T_REC_HLD	9
T_REC_XHO	0
T_REC_STR	6
T_REC_BST	0
T_REC_XST	0
T_REC_TTP	0
T_REC_THO	0
T_REC_SLD	6
T_REC_ALL	170
T_NUM_TAP	153
T_NUM_BRK	2
T_NUM_HLD	9
T_NUM_SLD	6
T_NUM_ALL	170
T_JUDGE_TAP	155
T_JUDGE_HLD	36
T_JUDGE_SLD	6
T_JUDGE_ALL	197
TTM_EACHPAIRS	25
TTM_SCR_TAP	76500
TTM_SCR_BRK	5200
TTM_SCR_HLD	9000
TTM_SCR_SLD	9000
TTM_SCR_ALL	99700
TTM_SCR_S	96550
TTM_SCR_SS	99500
TTM_RAT_ACV	10020

