VERSION	0.00.00	1.03.00
FES_MODE	0
BPM_DEF	100.000	150.000	150.000	 70.000
MET_DEF	4	4
RESOLUTION	384
CLK_DEF	384
COMPATIBLE_CODE	MA2

BPM	0	0	100.000
BPM	9	0	 72.000
BPM	10	0	150.000
BPM	72	0	 70.000
MET	0	0	4	4

HLD	2	0	2	96
TAP	2	96	3
TAP	2	144	2
HLD	2	192	1	96
TAP	2	192	4
TAP	2	288	0
TAP	2	336	1
TAP	3	0	2
HLD	3	0	7	96
TAP	3	96	0
TAP	3	144	7
STR	3	192	1
SV_	3	192	1	96	48	2
STR	3	192	6
SV_	3	192	6	96	48	5
HLD	4	0	3	96
TAP	4	96	4
TAP	4	144	5
TAP	4	192	6
TAP	4	240	1
TAP	4	288	2
TAP	4	336	3
HLD	5	0	4	96
TAP	5	96	5
HLD	5	192	3	96
TAP	5	288	2
HLD	6	0	5	96
TAP	6	96	4
TAP	6	144	5
TAP	6	192	3
HLD	6	192	6	96
TAP	6	288	7
TAP	6	336	6
TAP	7	0	0
HLD	7	0	5	96
HLD	7	96	4	96
HLD	7	192	3	96
TAP	7	288	2
STR	8	0	0
SLR	8	0	0	96	48	4
STR	8	0	4
SLR	8	0	4	96	48	0
STR	8	192	0
SV_	8	192	0	96	48	6
STR	8	192	4
SV_	8	192	4	96	48	2
STR	9	0	4
SSL	9	0	4	96	192	0
SSR	9	0	4	96	192	0
TAP	10	0	3
TAP	10	0	5
TAP	10	72	1
TAP	10	72	4
TAP	10	144	2
STR	10	144	6
SI_	10	144	6	96	48	2
TAP	10	240	0
TAP	10	288	0
TAP	11	0	2
TAP	11	0	4
TAP	11	72	3
TAP	11	72	6
STR	11	144	1
SI_	11	144	1	96	48	5
TAP	11	144	5
TAP	11	240	7
TAP	11	288	7
STR	12	0	4
SI_	12	0	4	96	48	0
TAP	12	0	6
TAP	12	96	5
TAP	12	192	1
STR	12	192	3
SI_	12	192	3	96	48	7
TAP	12	288	2
STR	13	0	4
SUL	13	0	4	96	48	0
TAP	13	0	6
TAP	13	96	5
TAP	13	192	1
STR	13	192	3
SUR	13	192	3	96	48	7
TAP	13	288	2
STR	14	0	4
SCL	14	0	4	96	48	1
TAP	14	0	6
TAP	14	96	5
TAP	14	192	1
STR	14	192	3
SCR	14	192	3	96	48	6
TAP	14	288	2
STR	15	0	0
SI_	15	0	0	96	48	4
STR	15	0	7
SI_	15	0	7	96	48	5
STR	15	96	0
SI_	15	96	0	96	48	2
STR	15	96	7
SI_	15	96	7	96	48	3
STR	15	192	0
SI_	15	192	0	96	48	4
STR	15	192	7
SI_	15	192	7	96	48	5
TAP	15	288	0
TAP	15	288	7
TAP	16	0	1
STR	16	0	3
SI_	16	0	3	96	48	7
TAP	16	96	2
STR	16	192	4
SI_	16	192	4	96	48	0
TAP	16	192	6
TAP	16	288	5
TAP	17	0	1
STR	17	0	3
SUR	17	0	3	96	48	7
TAP	17	96	2
STR	17	192	4
SUL	17	192	4	96	48	0
TAP	17	192	6
TAP	17	288	5
TAP	18	0	1
STR	18	0	3
SCR	18	0	3	96	48	6
TAP	18	96	2
STR	18	192	4
SCL	18	192	4	96	48	1
TAP	18	192	6
TAP	18	288	5
TAP	19	0	6
TAP	19	0	7
STR	19	72	0
SI_	19	72	0	96	48	5
TAP	19	72	1
TAP	19	144	2
TAP	19	192	2
BRK	19	288	7
HLD	20	0	1	72
HLD	20	72	3	72
TAP	20	144	5
STR	20	192	5
SUL	20	192	5	96	48	1
TAP	20	288	7
TAP	20	336	6
HLD	21	0	6	72
HLD	21	72	4	72
TAP	21	144	2
STR	21	192	2
SUR	21	192	2	96	48	6
TAP	21	288	0
HLD	22	0	2	72
HLD	22	72	3	72
TAP	22	144	4
TAP	22	192	5
TAP	22	240	4
TAP	22	288	3
TAP	22	336	2
TAP	23	0	0
TAP	23	0	1
TAP	23	72	6
TAP	23	72	7
TAP	23	144	3
TAP	23	144	4
TAP	23	192	3
TAP	23	192	4
TAP	23	240	0
TAP	23	288	0
TAP	23	336	6
TAP	23	360	4
HLD	24	0	5	72
HLD	24	72	3	72
TAP	24	144	1
STR	24	192	1
SUR	24	192	1	96	48	5
TAP	24	288	0
TAP	24	336	2
HLD	25	0	2	72
HLD	25	72	4	72
TAP	25	144	6
STR	25	192	6
SUL	25	192	6	96	48	2
TAP	25	288	7
HLD	26	0	0	72
HLD	26	72	1	72
TAP	26	144	2
HLD	26	192	7	72
HLD	26	264	6	72
TAP	26	336	5
TAP	27	0	3
TAP	27	0	4
TAP	27	72	2
TAP	27	72	7
TAP	27	144	0
TAP	27	144	5
STR	27	192	0
SV_	27	192	0	96	48	2
STR	27	192	5
SV_	27	192	5	96	48	7
HLD	28	0	4	48
HLD	28	0	5	48
HLD	28	72	2	120
HLD	28	72	7	120
STR	28	240	2
SCL	28	240	2	96	48	7
STR	28	240	7
SCL	28	240	7	96	48	4
TAP	28	336	2
TAP	28	336	7
TAP	29	48	3
TAP	29	96	1
TAP	29	96	4
TAP	29	192	5
TAP	29	240	4
TAP	29	288	3
TAP	29	288	6
HLD	30	0	2	48
HLD	30	0	3	48
HLD	30	72	0	120
HLD	30	72	5	120
STR	30	240	0
SCR	30	240	0	96	48	3
STR	30	240	5
SCR	30	240	5	96	48	0
TAP	30	336	0
TAP	30	336	5
TAP	31	48	4
TAP	31	96	3
TAP	31	96	6
TAP	31	192	2
TAP	31	240	3
TAP	31	288	1
TAP	31	288	4
TAP	32	0	3
TAP	32	0	4
TAP	32	48	2
TAP	32	96	1
TAP	32	144	2
TAP	32	192	3
TAP	32	192	4
TAP	32	240	5
TAP	32	288	6
TAP	32	336	5
TAP	33	0	3
TAP	33	0	4
TAP	33	48	2
TAP	33	96	1
TAP	33	96	3
TAP	33	144	2
TAP	33	192	3
TAP	33	192	4
TAP	33	240	5
TAP	33	288	4
TAP	33	288	6
TAP	33	336	5
TAP	34	0	3
TAP	34	0	4
TAP	34	48	2
TAP	34	96	0
TAP	34	96	3
TAP	34	144	1
TAP	34	192	3
TAP	34	192	4
TAP	34	240	5
TAP	34	288	4
TAP	34	288	7
TAP	34	336	6
TAP	35	0	3
TAP	35	0	4
TAP	35	48	2
TAP	35	72	3
TAP	35	96	1
TAP	35	144	5
TAP	35	168	4
TAP	35	192	6
TAP	35	240	2
TAP	35	264	3
TAP	35	288	0
TAP	35	336	5
TAP	35	360	4
TAP	36	0	7
TAP	36	72	1
TAP	36	72	5
TAP	36	144	3
TAP	36	144	7
TAP	36	192	0
TAP	36	192	4
TAP	36	264	2
TAP	36	264	6
STR	36	336	0
SXL	36	336	0	96	192	3
STR	36	336	4
SXL	36	336	4	96	192	7
BRK	37	288	0
HLD	38	0	1	72
HLD	38	72	3	72
TAP	38	144	2
STR	38	192	0
SI_	38	192	0	96	48	5
STR	38	192	1
SI_	38	192	1	96	48	4
TAP	38	288	0
TAP	38	288	1
HLD	39	0	6	72
TAP	39	72	7
TAP	39	96	6
TAP	39	144	5
STR	39	192	4
SI_	39	192	4	96	48	1
STR	39	192	5
SI_	39	192	5	96	48	0
TAP	39	288	4
TAP	39	288	5
HLD	40	0	2	96
TAP	40	96	3
TAP	40	144	4
HLD	40	192	5	96
TAP	40	240	7
HLD	40	288	2	96
TAP	40	336	0
HLD	41	0	6	72
HLD	41	72	4	72
TAP	41	144	5
STR	41	192	6
SI_	41	192	6	96	48	3
STR	41	192	7
SI_	41	192	7	96	48	2
TAP	41	288	6
TAP	41	288	7
HLD	42	0	0	192
HLD	42	0	5	192
TAP	42	240	0
TAP	42	240	5
TAP	42	288	2
TAP	42	288	3
HLD	43	0	2	192
HLD	43	0	7	192
TAP	43	240	2
TAP	43	240	7
TAP	43	288	4
TAP	43	288	5
STR	44	0	1
SI_	44	0	1	96	48	6
STR	44	0	2
SI_	44	0	2	96	48	5
TAP	44	96	1
TAP	44	96	2
STR	44	192	5
SI_	44	192	5	96	48	2
STR	44	192	6
SI_	44	192	6	96	48	1
TAP	44	288	5
TAP	44	288	6
STR	45	0	3
SI_	45	0	3	96	48	7
STR	45	0	4
SI_	45	0	4	96	48	6
STR	45	96	3
SI_	45	96	3	96	48	1
STR	45	96	4
SI_	45	96	4	96	48	0
STR	45	192	3
SF_	45	192	3	96	48	7
TAP	45	192	4
BRK	45	288	3
HLD	46	0	6	72
HLD	46	72	4	72
TAP	46	144	5
STR	46	192	6
SI_	46	192	6	96	48	3
STR	46	192	7
SI_	46	192	7	96	48	2
TAP	46	288	6
TAP	46	288	7
HLD	47	0	1	72
TAP	47	72	0
TAP	47	96	1
TAP	47	144	2
STR	47	192	2
SI_	47	192	2	96	48	7
STR	47	192	3
SI_	47	192	3	96	48	6
TAP	47	288	2
TAP	47	288	3
HLD	48	0	5	96
TAP	48	96	4
TAP	48	144	3
HLD	48	192	2	96
TAP	48	240	0
HLD	48	288	5	96
TAP	48	336	7
HLD	49	0	1	72
HLD	49	72	3	72
TAP	49	144	2
STR	49	192	0
SI_	49	192	0	96	48	5
STR	49	192	1
SI_	49	192	1	96	48	4
TAP	49	288	0
TAP	49	288	1
STR	50	0	2
SCL	50	0	2	96	96	7
STR	50	96	7
SCL	50	96	7	96	96	4
STR	50	192	4
SCL	50	192	4	96	96	1
STR	50	288	1
SCL	50	288	1	96	96	6
STR	51	0	6
SCL	51	0	6	96	96	3
STR	51	96	3
SCL	51	96	3	96	96	0
STR	51	192	0
SI_	51	192	0	96	48	4
STR	51	288	7
SI_	51	288	7	96	48	3
STR	52	0	1
SUR	52	0	1	96	48	6
STR	52	192	7
SI_	52	192	7	96	48	2
STR	52	288	0
SI_	52	288	0	96	48	5
BRK	53	0	0
TAP	53	144	5
TAP	53	192	4
TAP	53	240	2
TAP	53	264	3
TAP	53	288	2
TAP	53	336	1
TAP	53	336	6
HLD	54	0	5	72
HLD	54	72	7	72
TAP	54	144	6
STR	54	192	4
SI_	54	192	4	96	48	1
STR	54	192	5
SI_	54	192	5	96	48	0
TAP	54	288	4
TAP	54	288	5
HLD	55	0	1	72
TAP	55	72	0
TAP	55	96	1
TAP	55	144	2
STR	55	192	2
SI_	55	192	2	96	48	7
STR	55	192	3
SI_	55	192	3	96	48	6
TAP	55	288	2
TAP	55	288	3
HLD	56	0	6	96
TAP	56	96	7
TAP	56	144	0
HLD	56	192	1	96
TAP	56	240	3
HLD	56	288	6	96
TAP	56	336	4
HLD	57	0	2	72
HLD	57	72	0	72
TAP	57	144	7
STR	57	192	0
SCL	57	192	0	96	48	5
STR	57	192	7
SCR	57	192	7	96	48	2
TAP	57	288	0
TAP	57	288	7
STR	58	0	4
SCL	58	0	4	96	96	1
STR	58	96	1
SCL	58	96	1	96	96	6
STR	58	192	6
SCL	58	192	6	96	48	4
TAP	58	288	2
STR	59	0	3
SCR	59	0	3	96	96	6
STR	59	96	6
SCR	59	96	6	96	96	1
STR	59	192	1
SCR	59	192	1	96	48	3
HLD	59	288	5	192
STR	60	0	7
SI_	60	0	7	96	48	3
STR	60	192	0
SCL	60	192	0	96	48	5
TAP	60	192	5
BRK	60	288	0
STR	60	288	7
SCR	60	288	7	96	48	2
TAP	61	0	5
BRK	61	0	7
TAP	61	144	2
TAP	61	144	3
TAP	61	192	4
TAP	61	192	5
TAP	61	240	3
TAP	61	264	4
TAP	61	288	3
STR	61	336	3
SI_	61	336	3	96	240	0
STR	61	336	4
SI_	61	336	4	96	240	7
TAP	62	0	3
TAP	62	0	4
TAP	63	0	0
TAP	63	0	1
TAP	63	72	6
STR	63	72	7
SI_	63	72	7	96	48	2
TAP	63	144	5
TAP	63	192	5
BRK	63	288	0
BRK	63	288	7
TAP	64	0	2
STR	64	0	3
SI_	64	0	3	96	48	7
TAP	64	96	1
STR	64	192	4
SI_	64	192	4	96	48	0
TAP	64	192	5
TAP	64	288	6
TAP	65	0	2
STR	65	0	3
SUR	65	0	3	96	48	7
TAP	65	96	0
STR	65	192	4
SUL	65	192	4	96	48	0
TAP	65	192	5
TAP	65	288	7
TAP	66	0	2
STR	66	0	3
SCR	66	0	3	96	48	6
TAP	66	96	7
STR	66	192	4
SCL	66	192	4	96	48	1
TAP	66	192	5
TAP	66	288	0
STR	67	0	0
SI_	67	0	0	96	48	2
STR	67	0	7
SI_	67	0	7	96	48	3
STR	67	96	0
SI_	67	96	0	96	48	4
STR	67	96	7
SI_	67	96	7	96	48	5
STR	67	192	0
SI_	67	192	0	96	48	2
STR	67	192	7
SI_	67	192	7	96	48	3
TAP	67	288	0
TAP	67	288	7
STR	68	0	4
SI_	68	0	4	96	48	0
TAP	68	0	5
TAP	68	96	6
TAP	68	192	2
STR	68	192	3
SI_	68	192	3	96	48	7
TAP	68	288	1
STR	69	0	4
SUL	69	0	4	96	48	0
TAP	69	0	5
TAP	69	96	7
TAP	69	192	2
STR	69	192	3
SUR	69	192	3	96	48	7
TAP	69	288	0
STR	70	0	4
SCL	70	0	4	96	48	1
TAP	70	0	5
TAP	70	96	0
TAP	70	192	2
STR	70	192	3
SCR	70	192	3	96	48	6
TAP	70	288	7
BST	71	0	1
SI_	71	0	1	96	24	4
BST	71	72	5
SI_	71	72	5	96	24	0
TAP	71	144	3
BST	71	192	3
SI_	71	192	3	96	24	6
BST	71	264	7
SI_	71	264	7	96	24	2
HLD	71	336	0	816
BST	72	96	1
SXR	72	96	1	96	384	5

T_REC_TAP	286
T_REC_BRK	8
T_REC_XTP	0
T_REC_HLD	63
T_REC_XHO	0
T_REC_STR	108
T_REC_BST	5
T_REC_XST	0
T_REC_TTP	0
T_REC_THO	0
T_REC_SLD	114
T_REC_ALL	584
T_NUM_TAP	394
T_NUM_BRK	13
T_NUM_HLD	63
T_NUM_SLD	114
T_NUM_ALL	584
T_JUDGE_TAP	407
T_JUDGE_HLD	189
T_JUDGE_SLD	114
T_JUDGE_ALL	710
TTM_EACHPAIRS	125
TTM_SCR_TAP	197000
TTM_SCR_BRK	33800
TTM_SCR_HLD	63000
TTM_SCR_SLD	171000
TTM_SCR_ALL	464800
TTM_SCR_S	449600
TTM_SCR_SS	463500
TTM_RAT_ACV	10028

