VERSION	0.00.00	1.03.00
FES_MODE	0
BPM_DEF	100.000	150.000	150.000	 70.000
MET_DEF	4	4
RESOLUTION	384
CLK_DEF	384
COMPATIBLE_CODE	MA2

BPM	0	0	100.000
BPM	9	0	 72.000
BPM	10	0	150.000
BPM	72	0	 70.000
MET	0	0	4	4

STR	2	0	7
SCR	2	0	7	96	240	3
TAP	3	0	1
STR	3	96	0
SCL	3	96	0	96	144	4
TAP	4	0	0
TAP	4	96	1
TAP	4	96	7
HLD	4	192	2	96
HLD	4	192	6	96
STR	5	0	1
SI_	5	0	1	96	48	6
STR	5	192	5
SI_	5	192	5	96	48	2
STR	6	0	1
SUR	6	0	1	96	192	6
STR	7	0	6
SUL	7	0	6	96	192	1
TAP	8	0	0
TAP	8	0	7
TAP	8	96	1
TAP	8	96	6
TAP	8	192	2
TAP	8	192	5
TAP	8	288	3
TAP	8	288	4
HLD	9	0	3	288
STR	9	0	4
SI_	9	0	4	96	192	7
TAP	10	0	0
TAP	10	0	1
TAP	10	72	0
TAP	10	72	1
TAP	10	144	2
TAP	10	144	7
TAP	10	240	3
TAP	10	240	4
TAP	10	288	3
TAP	10	288	4
TAP	11	0	6
TAP	11	0	7
TAP	11	72	6
TAP	11	72	7
TAP	11	144	0
TAP	11	144	5
TAP	11	240	3
TAP	11	240	4
TAP	11	288	3
TAP	11	288	4
HLD	12	0	2	96
TAP	12	96	0
HLD	12	192	5	96
TAP	12	288	7
HLD	13	0	3	96
TAP	13	96	0
HLD	13	192	4	96
TAP	13	288	7
STR	14	0	3
SI_	14	0	3	96	48	7
TAP	14	96	6
STR	14	192	4
SI_	14	192	4	96	48	0
TAP	14	288	1
TAP	15	0	3
TAP	15	96	2
TAP	15	96	5
TAP	15	192	1
TAP	15	192	6
BRK	15	288	0
BRK	15	288	7
TAP	16	0	1
TAP	16	96	0
TAP	16	96	2
TAP	16	192	6
TAP	16	288	5
TAP	16	288	7
TAP	17	0	2
TAP	17	96	1
TAP	17	96	3
TAP	17	192	5
TAP	17	288	4
TAP	17	288	6
HLD	18	0	3	96
HLD	18	96	2	96
HLD	18	192	1	96
TAP	18	288	0
TAP	19	0	0
TAP	19	0	7
TAP	19	72	0
TAP	19	72	7
TAP	19	144	0
TAP	19	144	7
BRK	19	192	1
BRK	19	192	6
TAP	20	0	4
TAP	20	96	5
HLD	20	192	6	96
TAP	20	288	7
TAP	21	0	3
TAP	21	96	2
HLD	21	192	1	96
TAP	21	288	0
TAP	22	0	5
TAP	22	48	4
TAP	22	96	5
TAP	22	192	2
TAP	22	240	3
TAP	22	288	2
HLD	23	0	4	96
HLD	23	96	5	96
TAP	23	192	6
TAP	23	240	7
TAP	23	288	6
TAP	24	0	4
TAP	24	96	3
HLD	24	192	2	96
TAP	24	288	1
TAP	25	0	3
TAP	25	96	4
HLD	25	192	5	96
TAP	25	288	6
TAP	26	0	1
TAP	26	48	0
TAP	26	96	1
TAP	26	192	6
TAP	26	240	7
TAP	26	288	6
TAP	27	0	3
TAP	27	0	4
TAP	27	72	3
TAP	27	72	4
TAP	27	144	3
TAP	27	144	4
BRK	27	192	2
BRK	27	192	5
STR	28	0	1
SXR	28	0	1	96	240	5
HLD	28	0	4	672
TAP	29	96	5
TAP	29	192	0
TAP	29	288	5
HLD	30	0	3	672
STR	30	0	6
SXL	30	0	6	96	240	2
TAP	31	96	2
TAP	31	192	7
TAP	31	288	2
TAP	32	0	6
TAP	32	96	0
TAP	32	96	7
TAP	32	192	1
TAP	32	240	0
TAP	32	288	1
TAP	33	0	2
TAP	33	96	3
TAP	33	96	4
TAP	33	192	5
TAP	33	240	4
TAP	33	288	5
TAP	34	0	4
TAP	34	0	5
TAP	34	96	6
TAP	34	96	7
TAP	34	192	0
TAP	34	192	1
STR	34	288	2
SXR	34	288	2	96	288	7
STR	34	288	3
SXL	34	288	3	96	288	6
BRK	36	0	0
BRK	36	0	7
TAP	36	72	0
TAP	36	72	7
TAP	36	144	0
TAP	36	144	7
BRK	36	192	1
BRK	36	192	6
TAP	36	264	1
TAP	36	264	6
STR	36	336	1
SXL	36	336	1	96	144	0
STR	36	336	6
SXR	36	336	6	96	144	7
HLD	38	0	1	72
HLD	38	72	2	72
TAP	38	144	0
STR	38	192	0
SI_	38	192	0	96	48	4
TAP	39	0	5
TAP	39	48	4
TAP	39	96	3
TAP	39	144	2
STR	39	192	1
SI_	39	192	1	96	48	4
STR	39	192	7
SI_	39	192	7	96	48	4
STR	40	0	2
SI_	40	0	2	96	48	7
STR	40	0	3
SI_	40	0	3	96	48	7
STR	40	192	4
SI_	40	192	4	96	48	0
STR	40	192	5
SI_	40	192	5	96	48	0
TAP	41	0	1
TAP	41	0	7
TAP	41	72	1
TAP	41	72	7
TAP	41	144	0
TAP	41	144	6
TAP	41	192	0
TAP	41	192	6
BRK	41	288	0
BRK	41	288	7
TAP	42	0	2
HLD	42	0	7	288
TAP	42	240	6
BRK	42	288	0
HLD	43	0	1	288
TAP	43	0	3
TAP	43	240	2
BRK	43	288	0
TAP	44	0	0
TAP	44	0	4
TAP	44	96	3
TAP	44	96	7
TAP	44	192	0
TAP	44	192	5
STR	44	288	2
SUR	44	288	2	96	192	5
TAP	44	288	7
BRK	45	288	0
BRK	45	288	7
HLD	46	0	6	72
HLD	46	72	5	72
TAP	46	144	7
STR	46	192	7
SI_	46	192	7	96	48	3
TAP	47	0	2
TAP	47	48	3
TAP	47	96	4
TAP	47	144	5
STR	47	192	0
SI_	47	192	0	96	48	3
STR	47	192	6
SI_	47	192	6	96	48	3
HLD	48	0	1	96
STR	48	0	5
SCR	48	0	5	96	48	0
STR	48	192	2
SCL	48	192	2	96	48	7
HLD	48	192	6	96
TAP	49	0	0
TAP	49	0	5
TAP	49	72	3
TAP	49	72	4
TAP	49	144	2
TAP	49	144	7
TAP	49	192	2
TAP	49	192	7
BRK	49	288	0
BRK	49	288	7
HLD	50	0	1	96
HLD	50	96	0	96
HLD	50	192	7	96
HLD	50	288	6	96
HLD	51	0	2	96
HLD	51	96	3	96
HLD	51	192	4	96
HLD	51	288	5	96
STR	52	0	6
SI_	52	0	6	96	48	2
STR	52	192	0
SI_	52	192	0	96	48	4
HLD	53	0	1	288
HLD	53	0	3	288
HLD	54	0	1	72
HLD	54	72	0	72
TAP	54	144	7
STR	54	192	7
SCR	54	192	7	96	48	2
TAP	54	288	6
TAP	55	0	3
TAP	55	48	4
TAP	55	96	5
TAP	55	144	6
STR	55	192	0
SCR	55	192	0	96	48	3
STR	55	192	7
SCL	55	192	7	96	48	4
STR	56	0	2
SCL	56	0	2	96	48	7
STR	56	0	3
SCR	56	0	3	96	48	6
STR	56	192	4
SCL	56	192	4	96	48	1
STR	56	192	5
SCR	56	192	5	96	48	0
TAP	57	0	2
TAP	57	0	7
TAP	57	72	3
TAP	57	72	4
TAP	57	144	0
TAP	57	144	5
TAP	57	192	0
TAP	57	192	5
BRK	57	288	0
BRK	57	288	7
HLD	58	0	6	96
HLD	58	96	7	96
HLD	58	192	0	96
HLD	58	288	1	96
HLD	59	0	5	96
HLD	59	96	4	96
HLD	59	192	3	96
HLD	59	288	2	96
STR	60	0	1
SI_	60	0	1	96	48	5
STR	60	192	7
SI_	60	192	7	96	48	3
HLD	61	0	4	288
HLD	61	0	6	288
STR	62	0	3
SXR	62	0	3	96	192	0
STR	62	0	4
SXL	62	0	4	96	192	7
TAP	63	0	1
TAP	63	0	3
TAP	63	72	0
TAP	63	72	7
TAP	63	144	4
TAP	63	144	6
TAP	63	192	4
TAP	63	192	6
BRK	63	288	0
BRK	63	288	7
TAP	64	0	2
TAP	64	96	0
TAP	64	96	6
TAP	64	192	3
TAP	64	240	2
TAP	64	288	1
TAP	64	288	7
TAP	65	0	5
TAP	65	96	0
TAP	65	96	6
TAP	65	192	5
TAP	65	240	6
TAP	65	288	1
TAP	65	288	7
STR	66	0	3
SI_	66	0	3	96	48	7
STR	66	0	4
SI_	66	0	4	96	48	6
STR	66	192	3
SI_	66	192	3	96	48	1
STR	66	192	4
SI_	66	192	4	96	48	0
TAP	67	0	3
TAP	67	0	4
TAP	67	96	2
TAP	67	96	5
TAP	67	192	1
TAP	67	192	6
BRK	67	288	0
BRK	67	288	7
TAP	68	0	3
TAP	68	96	1
TAP	68	96	2
TAP	68	192	4
TAP	68	240	3
TAP	68	288	2
TAP	68	288	7
TAP	69	0	4
TAP	69	96	5
TAP	69	96	6
TAP	69	192	3
TAP	69	240	4
TAP	69	288	0
TAP	69	288	5
TAP	70	0	2
TAP	70	0	3
TAP	70	96	4
TAP	70	96	5
TAP	70	192	6
TAP	70	192	7
TAP	70	288	0
TAP	70	288	1
BRK	71	0	1
BRK	71	0	3
TAP	71	72	0
TAP	71	72	7
TAP	71	144	0
TAP	71	144	7
BRK	71	192	4
BRK	71	192	6
TAP	71	264	0
TAP	71	264	7
TAP	71	336	0
TAP	71	336	7
HLD	72	96	0	720
BST	72	96	7
SXL	72	96	7	96	384	5

T_REC_TAP	234
T_REC_BRK	28
T_REC_XTP	0
T_REC_HLD	49
T_REC_XHO	0
T_REC_STR	45
T_REC_BST	1
T_REC_XST	0
T_REC_TTP	0
T_REC_THO	0
T_REC_SLD	46
T_REC_ALL	403
T_NUM_TAP	279
T_NUM_BRK	29
T_NUM_HLD	49
T_NUM_SLD	46
T_NUM_ALL	403
T_JUDGE_TAP	308
T_JUDGE_HLD	188
T_JUDGE_SLD	46
T_JUDGE_ALL	542
TTM_EACHPAIRS	110
TTM_SCR_TAP	139500
TTM_SCR_BRK	75400
TTM_SCR_HLD	49000
TTM_SCR_SLD	69000
TTM_SCR_ALL	332900
TTM_SCR_S	320100
TTM_SCR_SS	330000
TTM_RAT_ACV	10087

