VERSION	0.00.00	1.03.00
FES_MODE	0
BPM_DEF	100.000	150.000	150.000	 70.000
MET_DEF	4	4
RESOLUTION	384
CLK_DEF	384
COMPATIBLE_CODE	MA2

BPM	0	0	100.000
BPM	9	0	 72.000
BPM	10	0	150.000
BPM	72	0	 70.000
MET	0	0	4	4

HLD	2	0	2	192
HLD	2	192	3	192
HLD	3	0	4	192
TAP	3	192	5
HLD	4	0	5	192
HLD	4	192	4	192
HLD	5	0	3	192
TAP	5	192	2
HLD	6	0	1	192
HLD	6	192	0	192
HLD	7	0	7	192
TAP	7	192	6
HLD	8	0	6	192
HLD	8	192	7	192
STR	9	0	0
SCR	9	0	0	96	192	7
TAP	10	0	5
TAP	10	96	5
TAP	10	192	5
TAP	11	0	2
TAP	11	96	2
TAP	11	192	2
TAP	12	0	5
TAP	12	96	5
TAP	12	192	4
TAP	12	288	4
TAP	13	0	5
TAP	13	96	4
TAP	13	192	3
TAP	13	192	6
TAP	14	0	2
TAP	14	96	2
TAP	14	192	3
TAP	14	288	3
TAP	15	0	2
TAP	15	96	3
TAP	15	192	1
TAP	15	192	4
TAP	16	0	5
TAP	16	96	5
TAP	16	192	4
TAP	16	288	4
TAP	17	0	5
TAP	17	96	4
TAP	17	192	3
TAP	17	192	6
TAP	18	0	0
TAP	18	96	0
TAP	18	192	7
TAP	18	288	7
TAP	19	0	0
TAP	19	96	7
BRK	19	192	1
BRK	19	192	6
TAP	20	0	2
TAP	20	96	3
TAP	20	192	1
TAP	20	192	4
TAP	21	0	5
TAP	21	96	4
TAP	21	192	3
TAP	21	192	6
TAP	22	0	1
TAP	22	96	1
TAP	22	192	0
TAP	22	288	0
TAP	23	0	1
TAP	23	96	0
TAP	23	192	2
TAP	23	192	7
TAP	24	0	5
TAP	24	96	4
TAP	24	192	3
TAP	24	192	6
TAP	25	0	2
TAP	25	96	3
TAP	25	192	1
TAP	25	192	4
TAP	26	0	6
TAP	26	96	6
TAP	26	192	7
TAP	26	288	7
TAP	27	0	0
TAP	27	0	5
BRK	27	192	0
BRK	27	192	7
HLD	28	0	2	96
TAP	28	96	3
TAP	28	192	1
TAP	28	192	4
HLD	29	0	5	96
TAP	29	96	4
TAP	29	192	3
TAP	29	192	6
HLD	30	0	2	96
TAP	30	96	3
TAP	30	192	1
TAP	30	192	4
HLD	31	0	5	96
TAP	31	96	4
TAP	31	192	3
TAP	31	192	6
HLD	32	0	1	96
TAP	32	96	0
TAP	32	192	2
TAP	32	192	7
HLD	33	0	6	96
TAP	33	96	7
TAP	33	192	0
TAP	33	192	5
TAP	34	0	0
TAP	34	0	7
TAP	34	96	0
TAP	34	96	7
TAP	34	192	1
TAP	34	192	6
TAP	34	288	1
TAP	34	288	6
TAP	35	0	2
TAP	35	0	5
TAP	35	96	2
TAP	35	96	5
TAP	35	192	3
TAP	35	192	4
TAP	35	288	3
TAP	35	288	4
BST	36	0	3
SCL	36	0	3	96	192	0
BST	36	0	4
SCR	36	0	4	96	192	7
TAP	38	0	2
TAP	38	96	2
TAP	38	96	3
TAP	38	192	5
TAP	38	288	4
TAP	38	288	5
TAP	39	0	2
TAP	39	96	1
TAP	39	96	3
TAP	39	192	0
TAP	39	192	4
TAP	40	0	5
TAP	40	96	4
TAP	40	96	5
TAP	40	192	2
TAP	40	288	2
TAP	40	288	3
TAP	41	0	5
TAP	41	96	4
TAP	41	96	6
TAP	41	192	3
TAP	41	192	7
TAP	42	0	1
TAP	42	96	0
TAP	42	96	1
TAP	42	192	2
TAP	42	192	7
TAP	43	0	6
TAP	43	96	6
TAP	43	96	7
TAP	43	192	0
TAP	43	192	5
TAP	44	0	0
TAP	44	0	7
TAP	44	96	1
TAP	44	192	0
TAP	44	192	7
TAP	44	288	6
TAP	45	0	0
TAP	45	0	7
TAP	45	96	0
TAP	45	96	7
BRK	45	192	1
BRK	45	192	6
TAP	46	0	2
TAP	46	96	1
TAP	46	96	3
TAP	46	192	5
TAP	46	288	4
TAP	46	288	6
TAP	47	0	2
TAP	47	96	2
TAP	47	96	3
TAP	47	192	0
TAP	47	192	5
TAP	48	0	5
TAP	48	96	4
TAP	48	96	6
TAP	48	192	2
TAP	48	288	1
TAP	48	288	3
TAP	49	0	5
TAP	49	96	4
TAP	49	96	5
TAP	49	192	2
TAP	49	192	7
TAP	50	0	0
TAP	50	0	1
TAP	50	96	0
TAP	50	96	1
TAP	50	192	6
TAP	50	192	7
TAP	50	288	6
TAP	50	288	7
TAP	51	0	0
TAP	51	0	7
TAP	51	96	1
TAP	51	96	6
TAP	51	192	2
TAP	51	192	5
TAP	51	288	3
TAP	51	288	4
BRK	52	0	2
BRK	52	0	5
TAP	52	192	1
TAP	52	192	6
STR	53	0	0
SI_	53	0	0	96	144	3
STR	53	0	7
SI_	53	0	7	96	144	4
TAP	54	0	1
TAP	54	96	0
TAP	54	96	2
TAP	54	192	6
TAP	54	288	5
TAP	54	288	7
TAP	55	0	1
TAP	55	96	0
TAP	55	96	2
TAP	55	192	3
TAP	55	192	7
TAP	55	288	4
TAP	55	288	6
TAP	56	0	6
TAP	56	96	5
TAP	56	96	7
TAP	56	192	1
TAP	56	288	0
TAP	56	288	2
TAP	57	0	6
TAP	57	96	5
TAP	57	96	7
TAP	57	192	0
TAP	57	192	4
TAP	57	288	1
TAP	57	288	3
TAP	58	0	2
TAP	58	0	3
TAP	58	96	2
TAP	58	96	3
TAP	58	192	4
TAP	58	192	5
TAP	58	288	4
TAP	58	288	5
TAP	59	0	3
TAP	59	0	4
TAP	59	96	2
TAP	59	96	5
TAP	59	192	1
TAP	59	192	6
TAP	59	288	0
TAP	59	288	7
BRK	60	0	1
BRK	60	0	6
TAP	60	192	2
TAP	60	192	5
TAP	60	288	2
TAP	60	288	5
STR	61	0	3
SI_	61	0	3	96	144	0
STR	61	0	4
SI_	61	0	4	96	144	7
STR	62	0	1
SI_	62	0	1	96	144	4
STR	63	0	6
SI_	63	0	6	96	144	3
TAP	64	0	2
TAP	64	96	2
TAP	64	96	3
TAP	64	192	5
TAP	64	288	4
TAP	64	288	5
TAP	65	0	1
TAP	65	96	0
TAP	65	96	1
TAP	65	192	6
TAP	65	288	6
TAP	65	288	7
TAP	66	0	1
TAP	66	96	0
TAP	66	96	2
TAP	66	192	6
TAP	66	288	5
TAP	66	288	7
TAP	67	0	0
TAP	67	0	7
TAP	67	96	1
TAP	67	96	6
TAP	67	192	2
TAP	67	192	5
TAP	67	288	3
TAP	67	288	4
HLD	68	0	2	96
TAP	68	96	3
HLD	68	192	5	96
TAP	68	288	4
HLD	69	0	1	96
TAP	69	96	2
HLD	69	192	6	96
TAP	69	288	5
HLD	70	0	1	96
TAP	70	96	0
HLD	70	192	6	96
TAP	70	288	7
TAP	71	0	0
TAP	71	0	7
TAP	71	96	0
TAP	71	96	7
TAP	71	192	1
TAP	71	192	6
BRK	71	288	1
BRK	71	288	6
STR	72	96	0
SXL	72	96	0	96	384	5
TAP	72	96	7

T_REC_TAP	270
T_REC_BRK	12
T_REC_XTP	0
T_REC_HLD	23
T_REC_XHO	0
T_REC_STR	8
T_REC_BST	2
T_REC_XST	0
T_REC_TTP	0
T_REC_THO	0
T_REC_SLD	10
T_REC_ALL	325
T_NUM_TAP	278
T_NUM_BRK	14
T_NUM_HLD	23
T_NUM_SLD	10
T_NUM_ALL	325
T_JUDGE_TAP	292
T_JUDGE_HLD	112
T_JUDGE_SLD	10
T_JUDGE_ALL	414
TTM_EACHPAIRS	99
TTM_SCR_TAP	139000
TTM_SCR_BRK	36400
TTM_SCR_HLD	23000
TTM_SCR_SLD	15000
TTM_SCR_ALL	213400
TTM_SCR_S	205650
TTM_SCR_SS	212000
TTM_RAT_ACV	10066

